Стивен Хокинг - Великий замысел (Создал ли Бог Вселенную?) / Stephen Hawking - Grand Design (Did God Create the Universe?) (Discovery Сhannel) [2012, Документальный, SATRip]

 
Автор Сообщение

reversefile ®

Пол:

Стаж: 4 года 11 месяцев

Сообщений: 842

Откуда: ReverseFile.org



Награды: Нет

Торрент-статистика

Создавать темы 24-Июл-2014 17:55

[Цитировать]

Стивен Хокинг - Великий Замысел (Создал ли Бог Вселенную?) / Stephen Hawking - Grand Design (Did God Create the Universe?)
Год выпуска: 2012
Страна: Великобритания
Жанр: Документальный
Продолжительность: 00:43:31
Перевод: Одноголосый закадровый
Русские субтитры: нет
Режиссер: Discovery Сhannel
Описание: Насколько вопрос о начале мира относится к науке или к религии? Самый знаменитый из сегодняшних ученых берется за вечный вопрос - кто или что стоит у истоков Вселенной?качество: SATRip
формат: AVI
Видео: 1 800 Kbps, 720*400 (16:9), at 25.000 fps, MPEG-4 Visual (XviD)
Аудио: 192 Kbps, 48.0 KHz, 16 bits, 2 channels, AC-3

MediaInfo

General
Complete name : D:\Стивен Хокинг - Создал ли Бог Вселенную.avi
Format : AVI
Format/Info : Audio Video Interleave
File size : 623 MiB
Duration : 43mn 31s
Overall bit rate : 2 001 Kbps
Writing application : VirtualDubMod 1.5.10.3 | www.virtualdub-fr.org || (build 2550/release)
Writing library : VirtualDubMod build 2550/release
Video
ID : 0
Format : MPEG-4 Visual
Format profile : Advanced Simple@L5
Format settings, BVOP : 2
Format settings, QPel : No
Format settings, GMC : No warppoints
Format settings, Matrix : Default (H.263)
Codec ID : XVID
Codec ID/Hint : XviD
Duration : 43mn 31s
Bit rate : 1 800 Kbps
Width : 720 pixels
Height : 400 pixels
Display aspect ratio : 16:9
Frame rate : 25.000 fps
Color space : YUV
Chroma subsampling : 4:2:0
Bit depth : 8 bits
Scan type : Progressive
Compression mode : Lossy
Bits/(Pixel*Frame) : 0.250
Stream size : 560 MiB (90%)
Writing library : XviD 1.2.1 (UTC 2008-12-04)
Audio
ID : 1
Format : AC-3
Format/Info : Audio Coding 3
Mode extension : CM (complete main)
Format settings, Endianness : Big
Codec ID : 2000
Duration : 43mn 30s
Bit rate mode : Constant
Bit rate : 192 Kbps
Channel(s) : 2 channels
Channel positions : Front: L R
Sampling rate : 48.0 KHz
Bit depth : 16 bits
Compression mode : Lossy
Stream size : 59.7 MiB (10%)
Alignment : Split accross interleaves
Interleave, duration : 40 ms (1.00 video frame)
Interleave, preload duration : 500 ms

Скриншоты

[Профиль] [ЛС]
Показать сообщения:    

Текущее время: Сегодня 04:00

Часовой пояс: GMT



Вы не можете начинать темы
Вы не можете отвечать на сообщения
Вы не можете редактировать свои сообщения
Вы не можете удалять свои сообщения
Вы не можете голосовать в опросах
Вы не можете прикреплять файлы к сообщениям
Вы не можете скачивать файлы