Стивен Хокинг - Великий замысел (Создал ли Бог Вселенную?) / Stephen Hawking - Grand Design (Did God Create the Universe?) (Discovery Сhannel) [2012, Документальный, SATRip]

 
Автор Сообщение

reversefile ®

Пол:

Стаж: 4 года 5 месяцев

Сообщений: 842

Откуда: ReverseFile.org



Награды: Нет

Торрент-статистика

Создавать темы 24-Июл-2014 17:55

[Цитировать]

Стивен Хокинг - Великий Замысел (Создал ли Бог Вселенную?) / Stephen Hawking - Grand Design (Did God Create the Universe?)
Год выпуска: 2012
Страна: Великобритания
Жанр: Документальный
Продолжительность: 00:43:31
Перевод: Одноголосый закадровый
Русские субтитры: нет
Режиссер: Discovery Сhannel
Описание: Насколько вопрос о начале мира относится к науке или к религии? Самый знаменитый из сегодняшних ученых берется за вечный вопрос - кто или что стоит у истоков Вселенной?качество: SATRip
формат: AVI
Видео: 1 800 Kbps, 720*400 (16:9), at 25.000 fps, MPEG-4 Visual (XviD)
Аудио: 192 Kbps, 48.0 KHz, 16 bits, 2 channels, AC-3

MediaInfo

General
Complete name : D:\Стивен Хокинг - Создал ли Бог Вселенную.avi
Format : AVI
Format/Info : Audio Video Interleave
File size : 623 MiB
Duration : 43mn 31s
Overall bit rate : 2 001 Kbps
Writing application : VirtualDubMod 1.5.10.3 | www.virtualdub-fr.org || (build 2550/release)
Writing library : VirtualDubMod build 2550/release
Video
ID : 0
Format : MPEG-4 Visual
Format profile : Advanced Simple@L5
Format settings, BVOP : 2
Format settings, QPel : No
Format settings, GMC : No warppoints
Format settings, Matrix : Default (H.263)
Codec ID : XVID
Codec ID/Hint : XviD
Duration : 43mn 31s
Bit rate : 1 800 Kbps
Width : 720 pixels
Height : 400 pixels
Display aspect ratio : 16:9
Frame rate : 25.000 fps
Color space : YUV
Chroma subsampling : 4:2:0
Bit depth : 8 bits
Scan type : Progressive
Compression mode : Lossy
Bits/(Pixel*Frame) : 0.250
Stream size : 560 MiB (90%)
Writing library : XviD 1.2.1 (UTC 2008-12-04)
Audio
ID : 1
Format : AC-3
Format/Info : Audio Coding 3
Mode extension : CM (complete main)
Format settings, Endianness : Big
Codec ID : 2000
Duration : 43mn 30s
Bit rate mode : Constant
Bit rate : 192 Kbps
Channel(s) : 2 channels
Channel positions : Front: L R
Sampling rate : 48.0 KHz
Bit depth : 16 bits
Compression mode : Lossy
Stream size : 59.7 MiB (10%)
Alignment : Split accross interleaves
Interleave, duration : 40 ms (1.00 video frame)
Interleave, preload duration : 500 ms

Скриншоты

[Профиль] [ЛС]
Кто просматривает тему:

Форум Тема Автор Размер
Фильмы 2015 года 12 раундов 3 / 12 Rounds 3: Lockdown (Стивен Рейнольдс / Stephen Reynolds) [2015, США, Боевик, HDRip] VO (Петр Титов) + Original Eng TorrentFilm 1.45 GB
Ужасы и мистика 81 миля (Стивен Кинг) [2014, Ужасы, аудиокнига, MP3, 128 kbps, Олег Воротилин] Magnat 101 MB
BBC BBC. Как мы до этого додумались со Стивеном Джонсоном (1-6 серии из 6) / How We Got to Now (Ник Стэйси / Nic Stacey) [2014, Документальный, познавательный, SATRip] sergej644 4.48 GB
BBC BBC: Дикая Бразилия / Wild Brazil [серии 1-3 из 3] (Джо Стивенс / Joe Stevens, Адам Уайт /Adam White) [2014 г., Документальный, природа, флора, фауна, HDTVRip 720p] skorpionN 5.78 GB
Документальные HD Discovery. Великий замысел по Стивену Хокингу / Stephen Hawking's Grand Design (2012) BDRip [H.264/720p] [1-3 серия из 3] sergej644 3.91 GB
Документальные HD Discovery. Экстремальные выходные с Беаром Гриллсом. Стивен Фрай / Bear's Wild Weekend with Stephen Fry (2013) HDTV 1080i от GeneralFilm sergej644 2.31 GB
Ужасы и мистика N. (Кинг Стивен) [2014, Мистика, аудиокнига, MP3, 128 kbps, vaska_hulya] Magnat 155 MB
PBS PBS: Настоящий гений со Стивеном Хокингом / Genius by Stephen Hawking [серии 6 из 6] (Ben Bowie) [2016 г., Документальный, научно-познавательный, HDTVRip 720p] skorpionN 7.64 GB
Показать сообщения:    

Текущее время: Сегодня 08:18

Часовой пояс: GMT



Вы не можете начинать темы
Вы не можете отвечать на сообщения
Вы не можете редактировать свои сообщения
Вы не можете удалять свои сообщения
Вы не можете голосовать в опросах
Вы не можете прикреплять файлы к сообщениям
Вы не можете скачивать файлы