Стервятники (Пантелеймон Сазонов) [1941, мультипликационный фильм-плакат, DVDRip] Eng hardsub

 
Автор Сообщение

TorrentFilm ®

Пол:

Стаж: 2 года

Сообщений: 7741



Награды: Нет

Торрент-статистика

Создавать темы 05-Окт-2015 00:08

[Цитировать]

Стервятники-Страна: СССР
Жанр: мультипликационный фильм-плакат
Продолжительность: 00:02:12
Год выпуска: 1941
Русские субтитры: нет-Режиссёры: Пантелеймон Сазонов- | Релиз: -Описание: Оборонный фильм-плакат о том, как советские ястребки побеждают в бою фашистских стервятников.-Качество: DVDRip
Формат: AVI
Видео: 640x480 (1.33:1), 25 fps, XviD MPEG-4 ~2383 kbps avg, 0.31 bit/pixel
Аудио: 48 kHz, AC3 Dolby Digital, 2/0 (L,R) ch, ~224 kbps
Субтитры: английские вшитые (hardsub)

MediaInfo

GeneralComplete name : Стервятники.1941.XviD.AC3-rutracker.aviFormat : AVIFormat/Info : Audio Video InterleaveFile size : 41.4 MiBDuration : 2mn 12sOverall bit rate : 2 618 KbpsMovie name : Стервятники.1941.XviD.AC3-rutrackerWriting application : VirtualDubMod 1.5.10.2 (build 2542/release)Comment : РГ Мультфильмы / Rutracker.org
VideoID : 0Format : MPEG-4 VisualFormat profile : Advanced Simple@L5Format settings, BVOP : 2Format settings, QPel : NoFormat settings, GMC : No warppointsFormat settings, Matrix : CustomCodec ID : XVIDCodec ID/Hint : XviDDuration : 2mn 12sBit rate : 2 384 KbpsWidth : 640 pixelsHeight : 480 pixelsDisplay aspect ratio : 4:3Frame rate : 25.000 fpsColor space : YUVChroma subsampling : 4:2:0Bit depth : 8 bitsScan type : ProgressiveCompression mode : LossyBits/(Pixel*Frame) : 0.310Stream size : 37.7 MiB (91%)Writing library : XviD 65
AudioID : 1Format : AC-3Format/Info : Audio Coding 3Mode extension : CM (complete main)Format settings, Endianness : BigCodec ID : 2000Duration : 2mn 12sBit rate mode : ConstantBit rate : 224 KbpsChannel(s) : 2 channelsChannel positions : Front: L RSampling rate : 48.0 KHzCompression mode : LossyStream size : 3.55 MiB (9%)Alignment : Split accross interleavesInterleave, duration : 40 ms (1.00 video frame)Interleave, preload duration : 500 ms

Скриншоты

[Профиль] [ЛС]
Кто просматривает тему:

Форум Тема Автор Размер
Фильмы (HD DVD, Blu-ray и BDRemux) Монстервилль / R.L. Stine's Monsterville: The Cabinet of Souls (2015) BDRemux 1080p | Лицензия BOSS 26.33 GB
Фильмы 2015 года Монстервилль / R.L. Stine's Monsterville: The Cabinet of Souls (2015) HDRip | Лицензия BOSS 1.37 GB
Фильмы 2015 года Монстервилль / R.L. Stine\'s Monsterville: The Cabinet of Souls (Питер ДеЛуис / Peter DeLuise) [2015, США, комедия, BDRip-AVC] Dub + Original (Eng) + Sub (Rus, Eng) TorrentFilm 2.18 GB
Фильмы 2015 года Монстервилль / R.L. Stine\'s Monsterville: The Cabinet of Souls (Питер ДеЛуис / Peter DeLuise) [2015, США, комедия, BDRip-AVC] Dub + Sub (Rus, Eng) TorrentFilm 1.46 GB
Фильмы 2015 года Монстервилль / R.L. Stine\'s Monsterville: The Cabinet of Souls (Питер ДеЛуис / Peter DeLuise) [2015, США, комедия, BDRip] Dub TorrentFilm 1.46 GB
Фильмы (HD Rips | 720p, 1080p) Стерва для чемпиона (Сергей Гинзбург) [2010, Россия, комедия, HDTV 1080i] + Original Rus TorrentFilm 11.89 GB
Фильмы (HD DVD, Blu-ray и BDRemux) Стервозные штучки / Bitch Slap (2009) BDRemux 1080p | D, L2, L1 Russian Mafia 20.64 GB
Фильмы (HD Rips | 720p, 1080p) Стервозные штучки / Bitch Slap (2009) BDRip 1080p | L1 | Расширенная версия Russian Mafia 9.5 GB
Показать сообщения:    

Текущее время: Сегодня 00:37

Часовой пояс: GMT



Вы не можете начинать темы
Вы не можете отвечать на сообщения
Вы не можете редактировать свои сообщения
Вы не можете удалять свои сообщения
Вы не можете голосовать в опросах
Вы не можете прикреплять файлы к сообщениям
Вы не можете скачивать файлы