Стена / The Wall (Даг Лайман) [2017 г., триллер, драма, военный, BDRip-AVC] [VO (BadBajo)]

 
Автор Сообщение

Bathory ®

Пол:

Стаж: 1 год 9 месяцев

Сообщений: 320



Награды: 3 (Подробнее)

За внесенный вклад в развитие сайта (Количество: 1) Друг (Количество: 1) Girls (Количество: 1)
Торрент-статистика

Создавать темы 09-Авг-2017 14:44

[Цитировать]

Стена / The Wall- Информация о фильме
Название: Стена
Оригинальное название: The Wall
Год выхода: 2017
Жанр: Триллер, драма, военный
Режиссер: Даг Лайман
В ролях: Аарон Тейлор-Джонсон, Джон Сина, Спенсер Томас, Лэйт Накли
О фильме:
Американский стрелок оказывается в ловушке за небольшой стеной и под прицелом своего противника. Герой ловит вражескую радиочастоту и общается с иракским снайпером. Живым с поля боя уйдет лишь один из них.

Страна: США
Студия: Amazon Studios, Big Indie Pictures, Picrow
Продолжительность: 01:29:54
Перевод: Любительский (одноголосный, закадровый) | BadBajo
Файл
Формат: AVC
Качество: BDRip | BDRemux 1080p |
Видео: 768x320, 1086 kbps, 23,976 fps, 0,184 Bits/(Pixel*Frame)
Звук: AAC, 48 kHz, 2 ch, 72 kbps
Субтитры: Нет

MI

Общее
Unique ID : 234750788027606073950995581767214823647 (0xB09B5B72511D25CA9C44A25BEA69F8DF)
Complete name : E:\The.Wall.2017.BDRip-AVC.MegaPeer.mkv
Format : Matroska
Format version : Version 2
File size : 746 Мбайт
Duration : 1 ч. 29 м.
Overall bit rate : 1160 Кбит/сек
Encoded date : UTC 2017-08-09 14:24:08
Writing application : mkvmerge v14.0.0 ('Flow') 64bit
Writing library : libebml v1.3.4 + libmatroska v1.4.5
Видео
ID : 1
Format : AVC
Format/Info : Advanced Video Codec
Format profile : High@L4.1
Format settings, CABAC : Да
Format settings, RefFrames : 12 кадров
Codec ID : V_MPEG4/ISO/AVC
Duration : 1 ч. 29 м.
Bit rate : 1086 Кбит/сек
Width : 768 пикселей
Height : 320 пикселей
Display aspect ratio : 2,40:1
Frame rate mode : Постоянный
Frame rate : 23,976 (24000/1001) кадра/сек
Color space : YUV
Chroma subsampling : 4:2:0
Bit depth : 8 бит
Scan type : Прогрессивная
Bits/(Pixel*Frame) : 0.184
Stream size : 698 Мбайт (94%)
Writing library : x264 core 152 r2851 ba24899
Encoding settings : cabac=1 / ref=12 / deblock=1:-3:-2 / analyse=0x3:0x133 / me=umh / subme=11 / psy=1 / psy_rd=1.00:0.08 / mixed_ref=1 / me_range=32 / chroma_me=1 / trellis=2 / 8x8dct=1 / cqm=0 / deadzone=21,11 / fast_pskip=0 / chroma_qp_offset=-3 / threads=10 / lookahead_threads=2 / sliced_threads=0 / nr=0 / decimate=0 / interlaced=0 / bluray_compat=0 / constrained_intra=0 / bframes=14 / b_pyramid=2 / b_adapt=2 / b_bias=0 / direct=3 / weightb=1 / open_gop=0 / weightp=2 / keyint=240 / keyint_min=23 / scenecut=0 / intra_refresh=0 / rc_lookahead=60 / rc=2pass / mbtree=1 / bitrate=1086 / ratetol=1.0 / qcomp=0.60 / qpmin=0 / qpmax=51 / qpstep=4 / cplxblur=15.0 / qblur=0.5 / vbv_maxrate=50000 / vbv_bufsize=62500 / nal_hrd=none / filler=0 / ip_ratio=1.40 / aq=2:1.00
Default : Да
Forced : Нет
Аудио
ID : 2
Format : AAC
Format/Info : Advanced Audio Codec
Format profile : HE-AAC / LC
Codec ID : A_AAC
Duration : 1 ч. 29 м.
Bit rate : 72,0 Кбит/сек
Channel(s) : 2 канала
Channel positions : Front: L R
Sampling rate : 48,0 КГц / 24,0 КГц
Frame rate : 23,438 кадра/сек (1024 SPF)
Compression mode : С потерями
Delay relative to video : 31 мс.
Stream size : 46,3 Мбайт (6%)
Language : Russian
Default : Да
Forced : Нет

Скриншоты

Релиз:
[Профиль] [ЛС]
Показать сообщения:    

Текущее время: Сегодня 12:57

Часовой пояс: GMT



Вы не можете начинать темы
Вы не можете отвечать на сообщения
Вы не можете редактировать свои сообщения
Вы не можете удалять свои сообщения
Вы не можете голосовать в опросах
Вы не можете прикреплять файлы к сообщениям
Вы не можете скачивать файлы