Стена / The Wall (2017) WEB-DL 1080p | L1

 
Автор Сообщение

BOSS ®

Пол:

Стаж: 3 года 2 месяца

Сообщений: 8560

Откуда: ODESSA



Награды: 22 (Подробнее)

За внесенный вклад в развитие сайта (Количество: 1) Top Releaser 4 (Количество: 1) Top Keeper 1 (Количество: 1)
Торрент-статистика

Создавать темы 02-Авг-2017 13:47

[Цитировать]

Информация о фильме
Название: Стена
Оригинальное название: The Wall
Год выхода: 2017
Жанр: триллер, драма, военный
Режиссер: Даг Лайман
В ролях: Аарон Тейлор-Джонсон, Джон Сина, Спенсер Томас, Лэйт Накли
О фильме:
Американский стрелок оказывается в ловушке за небольшой стеной и под прицелом своего противника. Герой ловит вражескую радиочастоту и общается с иракским снайпером. Живым с поля боя уйдет лишь один из них.

Страна: США
Студия: Amazon Studios, Big Indie Pictures, Picrow
Продолжительность: 01:29:48
Перевод: любительский одноголосный, закадровый [BadBajo]
Файл
Кодек: H.264
Качество: WEB-DL 1080p
Видео: AVC, 1920x792 (2.40:1), 23.976 fps ~ 4450 Kbps
Звук:
AC3, 48 KHz, 6 ch ~ 384 Kb/s (русский)
AC3, 48 KHz, 6 ch ~ 384 Kb/s (английский)
Субтитры: английские

MI:

Общее
Уникальный идентификатор : 200478511152686788145251472140437216034 (0x96D2C1BC9076729F88083A1853CEDB22)
Полное имя : Q:TorFThe.Wall.2017.1080p.WEB-DL.DD5.1.H264_rus_BadBajo.mkv
Формат : Matroska
Версия формата : Version 4 / Version 2
Размер файла : 3,34 Гбайт
Продолжительность : 1 ч. 29 м.
Общий поток : 5325 Кбит/сек
Название фильма : The.Wall.2017_rus_BadBajo
Дата кодирования : UTC 2017-08-01 18:22:05
Программа кодирования : mkvmerge v13.0.0 ('The Juggler') 64bit
Библиотека кодирования : libebml v1.3.4 + libmatroska v1.4.5
DURATION : 01:29:48.448000000
NUMBER_OF_FRAMES : 168389
NUMBER_OF_BYTES : 258645504
_STATISTICS_WRITING_APP : mkvmerge v13.0.0 ('The Juggler') 64bit
_STATISTICS_WRITING_DATE_UTC : 2017-08-01 18:22:05
_STATISTICS_TAGS : BPS DURATION NUMBER_OF_FRAMES NUMBER_OF_BYTES
Attachment : Yes
Видео
Идентификатор : 1
Формат : AVC
Формат/Информация : Advanced Video Codec
Профиль формата : High@L4.0
Параметр CABAC формата : Да
Параметр ReFrames формата : 5 кадров
Идентификатор кодека : V_MPEG4/ISO/AVC
Продолжительность : 1 ч. 29 м.
Битрейт : 4451 Кбит/сек
Ширина : 1920 пикселей
Высота : 792 пикселя
Соотношение сторон : 2,40:1
Частота кадров : 23,976 кадра/сек
Цветовое пространство : YUV
Субдискретизация насыщенности : 4:2:0
Битовая глубина : 8 бит
Тип развёртки : Прогрессивная
Бит/(Пиксели*Кадры) : 0.122
Размер потока : 2,79 Гбайт (84%)
Заголовок : The.Wall.2017.1080p.WEB-DL.DD5.1.H264-FGT
Язык : English
Default : Да
Forced : Нет
Основные цвета : BT.709-5, BT.1361, IEC 61966-2-4, SMPTE RP177
Характеристики трансфера : BT.709-5, BT.1361
Коэффициенты матрицы : BT.709-5, BT.1361, IEC 61966-2-4 709, SMPTE RP177
Аудио #1
Идентификатор : 2
Формат : AC-3
Формат/Информация : Audio Coding 3
Расширение режима : CM (complete main)
Идентификатор кодека : A_AC3
Продолжительность : 1 ч. 29 м.
Вид битрейта : Постоянный
Битрейт : 384 Кбит/сек
Каналы : 6 каналов
Расположение каналов : Front: L C R, Side: L R, LFE
Частота : 48,0 КГц
Битовая глубина : 16 бит
Метод сжатия : С потерями
Задержка видео : -42 мс.
Размер потока : 247 Мбайт (7%)
Заголовок : The.Wall.2017.1080p.WEB-DL.DD5.1.H264_rus_BadBajo
Язык : Russian
Default : Да
Forced : Да
Аудио #2
Идентификатор : 3
Формат : AC-3
Формат/Информация : Audio Coding 3
Расширение режима : CM (complete main)
Идентификатор кодека : A_AC3
Продолжительность : 1 ч. 29 м.
Вид битрейта : Постоянный
Битрейт : 384 Кбит/сек
Каналы : 6 каналов
Расположение каналов : Front: L C R, Side: L R, LFE
Частота : 48,0 КГц
Битовая глубина : 16 бит
Метод сжатия : С потерями
Задержка видео : -42 мс.
Размер потока : 247 Мбайт (7%)
Заголовок : The.Wall.2017.1080p.WEB-DL.DD5.1.H264-FGT
Язык : English
Default : Нет
Forced : Нет
Текст
Идентификатор : 4
Формат : UTF-8
Идентификатор кодека : S_TEXT/UTF8
Идентификатор кодека/Информация : UTF-8 Plain Text
Язык : English
Default : Нет
Forced : Нет
Меню
00:00:00.000 : en:Opening Sequence
00:06:05.000 : en:Comm Check
00:11:42.000 : en:Taking Cover
00:17:18.000 : en:Crack Bang
00:23:03.000 : en:Stop The Bleeding
00:28:18.000 : en:Where Do You Keep Going?
00:34:14.000 : en:Sniper Math
00:40:05.000 : en:Out Of Water
00:45:38.000 : en:Educate Me
00:51:26.000 : en:When This Is Over
00:57:14.000 : en:Running Back Behind Cover
01:02:40.000 : en:So You Studied?
01:08:22.000 : en:You Listening To Me?
01:14:22.000 : en:Fixing The Radio
01:19:45.000 : en:Time To Fight Back
01:25:33.000 : en:End Credits

Скриншоты

[Профиль] [ЛС]
Показать сообщения:    

Текущее время: Сегодня 13:09

Часовой пояс: GMT



Вы не можете начинать темы
Вы не можете отвечать на сообщения
Вы не можете редактировать свои сообщения
Вы не можете удалять свои сообщения
Вы не можете голосовать в опросах
Вы не можете прикреплять файлы к сообщениям
Вы не можете скачивать файлы