(Pop) Стелла - Позови (1994) [AAC|327-375 кб/с]

 
Автор Сообщение

sergej644 ®

Пол:

Стаж: 4 года 11 месяцев

Сообщений: 6041

Откуда: Soviet Union



Награды: Нет

Торрент-статистика

Создавать темы 15-Авг-2014 17:08

[Цитировать]

-Стелла - Позови (1994)- Год: 1994
Жанр: Pop
Лейбл: J.S.P. Company
Каталог #: 94 020-1
Продолжительность: 00:44:08
Кодек: AAC
Битрейт: 327-375 кб/с
Тип битрейта: VBR
Треклист:
01. Позови (4:25)
02. Девочка без сердца (4:20)
03. Вот и всё (4:00)
04. Сколько долгих дней... (3:03)
05. Пой душа (3:12)
06. Твой поцелуй (4:26)
07. Женщина-вампир (4:20)
08. Позови (mix) (3:34)
09. Слёзы любви (3:51)
10. Займись любовью (4:57)
11. Валютный бар (4:01)

Отчёт MediaInfo

Общее
Полное имя                               : C:\Users\PASHA\Desktop\Стелла - Позови (1994)\01. Позови.m4a
Формат                                   : MPEG-4
Профиль формата                          : Apple audio with iTunes info
Идентификатор кодека                     : M4A
Размер файла                             : 11,3 Мбайт
Продолжительность                        : 4 м. 25 с.
Режим общего битрейта                    : Переменный
Общий поток                              : 357 Кбит/сек
Альбом                                   : Позови
Трек                                     : Позови
Трек/Положение                           : 1
Трек/Всего                               : 11
Исполнитель                              : Александр Кирсанов и гр. Стелла
Жанр                                     : Pop
Дата записи                              : 1994
Дата кодирования                         : UTC 2014-08-14 06:42:01
Дата пометки                             : UTC 2014-08-14 06:42:09
Программа кодирования                    : qaac 2.19, CoreAudioToolbox 7.9.8.3, AAC-LC Encoder, TVBR q127, Quality 96
Примечание                               : ExactAudioCopy v0.99pb5
DISCID                                   : 920A580B
Аудио
Идентификатор                            : 1
Формат                                   : AAC
Формат/Информация                        : Advanced Audio Codec
Профиль формата                          : LC
Идентификатор кодека                     : 40
Продолжительность                        : 4 м. 25 с.
Вид битрейта                             : Переменный
Битрейт                                  : 353 Кбит/сек
Максимальный битрейт                     : 393 Кбит/сек
Каналы                                   : 2 канала
Расположение каналов                     : Front: L R
Частота                                  : 44,1 КГц
Метод сжатия                             : С потерями
Размер потока                            : 11,2 Мбайт (100%)
Дата кодирования                         : UTC 2014-08-14 06:42:01
Дата пометки                             : UTC 2014-08-14 06:42:09
Меню
00:00:00.047                             : Позови
Общее
Полное имя                               : C:\Users\PASHA\Desktop\Стелла - Позови (1994)\02. Девочка без сердца.m4a
Формат                                   : MPEG-4
Профиль формата                          : Apple audio with iTunes info
Идентификатор кодека                     : M4A
Размер файла                             : 11,4 Мбайт
Продолжительность                        : 4 м. 19 с.
Режим общего битрейта                    : Переменный
Общий поток                              : 368 Кбит/сек
Альбом                                   : Позови
Трек                                     : Девочка без сердца
Трек/Положение                           : 2
Трек/Всего                               : 11
Исполнитель                              : Александр Кирсанов и гр. Стелла
Жанр                                     : Pop
Дата записи                              : 1994
Дата кодирования                         : UTC 2014-08-14 06:42:01
Дата пометки                             : UTC 2014-08-14 06:42:09
Программа кодирования                    : qaac 2.19, CoreAudioToolbox 7.9.8.3, AAC-LC Encoder, TVBR q127, Quality 96
Примечание                               : ExactAudioCopy v0.99pb5
DISCID                                   : 920A580B
Аудио
Идентификатор                            : 1
Формат                                   : AAC
Формат/Информация                        : Advanced Audio Codec
Профиль формата                          : LC
Идентификатор кодека                     : 40
Продолжительность                        : 4 м. 19 с.
Вид битрейта                             : Переменный
Битрейт                                  : 367 Кбит/сек
Максимальный битрейт                     : 403 Кбит/сек
Каналы                                   : 2 канала
Расположение каналов                     : Front: L R
Частота                                  : 44,1 КГц
Метод сжатия                             : С потерями
Размер потока                            : 11,4 Мбайт (100%)
Дата кодирования                         : UTC 2014-08-14 06:42:01
Дата пометки                             : UTC 2014-08-14 06:42:09
Меню
00:00:00.047                             : Девочка без сердца
Общее
Полное имя                               : C:\Users\PASHA\Desktop\Стелла - Позови (1994)\03. Вот и всё.m4a
Формат                                   : MPEG-4
Профиль формата                          : Apple audio with iTunes info
Идентификатор кодека                     : M4A
Размер файла                             : 10,3 Мбайт
Продолжительность                        : 4 м. 0 с.
Режим общего битрейта                    : Переменный
Общий поток                              : 359 Кбит/сек
Альбом                                   : Позови
Трек                                     : Вот и всё
Трек/Положение                           : 3
Трек/Всего                               : 11
Исполнитель                              : Александр Кирсанов и гр. Стелла
Жанр                                     : Pop
Дата записи                              : 1994
Дата кодирования                         : UTC 2014-08-14 06:42:01
Дата пометки                             : UTC 2014-08-14 06:42:09
Программа кодирования                    : qaac 2.19, CoreAudioToolbox 7.9.8.3, AAC-LC Encoder, TVBR q127, Quality 96
Примечание                               : ExactAudioCopy v0.99pb5
DISCID                                   : 920A580B
Аудио
Идентификатор                            : 1
Формат                                   : AAC
Формат/Информация                        : Advanced Audio Codec
Профиль формата                          : LC
Идентификатор кодека                     : 40
Продолжительность                        : 4 м. 0 с.
Вид битрейта                             : Переменный
Битрейт                                  : 353 Кбит/сек
Максимальный битрейт                     : 417 Кбит/сек
Каналы                                   : 2 канала
Расположение каналов                     : Front: L R
Частота                                  : 44,1 КГц
Метод сжатия                             : С потерями
Размер потока                            : 10,3 Мбайт (100%)
Дата кодирования                         : UTC 2014-08-14 06:42:01
Дата пометки                             : UTC 2014-08-14 06:42:09
Меню
00:00:00.047                             : Вот и всё
Общее
Полное имя                               : C:\Users\PASHA\Desktop\Стелла - Позови (1994)\04. Сколько долгих дней....m4a
Формат                                   : MPEG-4
Профиль формата                          : Apple audio with iTunes info
Идентификатор кодека                     : M4A
Размер файла                             : 7,17 Мбайт
Продолжительность                        : 3 м. 2 с.
Режим общего битрейта                    : Переменный
Общий поток                              : 328 Кбит/сек
Альбом                                   : Позови
Трек                                     : Сколько долгих дней...
Трек/Положение                           : 4
Трек/Всего                               : 11
Исполнитель                              : Александр Кирсанов и гр. Стелла
Жанр                                     : Pop
Дата записи                              : 1994
Дата кодирования                         : UTC 2014-08-14 06:42:01
Дата пометки                             : UTC 2014-08-14 06:42:07
Программа кодирования                    : qaac 2.19, CoreAudioToolbox 7.9.8.3, AAC-LC Encoder, TVBR q127, Quality 96
Примечание                               : ExactAudioCopy v0.99pb5
DISCID                                   : 920A580B
Аудио
Идентификатор                            : 1
Формат                                   : AAC
Формат/Информация                        : Advanced Audio Codec
Профиль формата                          : LC
Идентификатор кодека                     : 40
Продолжительность                        : 3 м. 2 с.
Вид битрейта                             : Переменный
Битрейт                                  : 327 Кбит/сек
Максимальный битрейт                     : 385 Кбит/сек
Каналы                                   : 2 канала
Расположение каналов                     : Front: L R
Частота                                  : 44,1 КГц
Метод сжатия                             : С потерями
Размер потока                            : 7,13 Мбайт (99%)
Дата кодирования                         : UTC 2014-08-14 06:42:01
Дата пометки                             : UTC 2014-08-14 06:42:07
Меню
00:00:00.047                             : Сколько долгих дней...
Общее
Полное имя                               : C:\Users\PASHA\Desktop\Стелла - Позови (1994)\05. Пой душа.m4a
Формат                                   : MPEG-4
Профиль формата                          : Apple audio with iTunes info
Идентификатор кодека                     : M4A
Размер файла                             : 8,29 Мбайт
Продолжительность                        : 3 м. 11 с.
Режим общего битрейта                    : Переменный
Общий поток                              : 362 Кбит/сек
Альбом                                   : Позови
Трек                                     : Пой душа
Трек/Положение                           : 5
Трек/Всего                               : 11
Исполнитель                              : Александр Кирсанов и гр. Стелла
Жанр                                     : Pop
Дата записи                              : 1994
Дата кодирования                         : UTC 2014-08-14 06:42:08
Дата пометки                             : UTC 2014-08-14 06:42:14
Программа кодирования                    : qaac 2.19, CoreAudioToolbox 7.9.8.3, AAC-LC Encoder, TVBR q127, Quality 96
Примечание                               : ExactAudioCopy v0.99pb5
DISCID                                   : 920A580B
Аудио
Идентификатор                            : 1
Формат                                   : AAC
Формат/Информация                        : Advanced Audio Codec
Профиль формата                          : LC
Идентификатор кодека                     : 40
Продолжительность                        : 3 м. 11 с.
Вид битрейта                             : Переменный
Битрейт                                  : 361 Кбит/сек
Максимальный битрейт                     : 402 Кбит/сек
Каналы                                   : 2 канала
Расположение каналов                     : Front: L R
Частота                                  : 44,1 КГц
Метод сжатия                             : С потерями
Размер потока                            : 8,26 Мбайт (100%)
Дата кодирования                         : UTC 2014-08-14 06:42:08
Дата пометки                             : UTC 2014-08-14 06:42:14
Меню
00:00:00.047                             : Пой душа
Общее
Полное имя                               : C:\Users\PASHA\Desktop\Стелла - Позови (1994)\06. Твой поцелуй.m4a
Формат                                   : MPEG-4
Профиль формата                          : Apple audio with iTunes info
Идентификатор кодека                     : M4A
Размер файла                             : 11,3 Мбайт
Продолжительность                        : 4 м. 25 с.
Режим общего битрейта                    : Переменный
Общий поток                              : 356 Кбит/сек
Альбом                                   : Позови
Трек                                     : Твой поцелуй
Трек/Положение                           : 6
Трек/Всего                               : 11
Исполнитель                              : Александр Кирсанов и гр. Стелла
Жанр                                     : Pop
Дата записи                              : 1994
Дата кодирования                         : UTC 2014-08-14 06:42:09
Дата пометки                             : UTC 2014-08-14 06:42:18
Программа кодирования                    : qaac 2.19, CoreAudioToolbox 7.9.8.3, AAC-LC Encoder, TVBR q127, Quality 96
Примечание                               : ExactAudioCopy v0.99pb5
DISCID                                   : 920A580B
Аудио
Идентификатор                            : 1
Формат                                   : AAC
Формат/Информация                        : Advanced Audio Codec
Профиль формата                          : LC
Идентификатор кодека                     : 40
Продолжительность                        : 4 м. 25 с.
Вид битрейта                             : Переменный
Битрейт                                  : 353 Кбит/сек
Максимальный битрейт                     : 403 Кбит/сек
Каналы                                   : 2 канала
Расположение каналов                     : Front: L R
Частота                                  : 44,1 КГц
Метод сжатия                             : С потерями
Размер потока                            : 11,2 Мбайт (100%)
Дата кодирования                         : UTC 2014-08-14 06:42:09
Дата пометки                             : UTC 2014-08-14 06:42:18
Меню
00:00:00.047                             : Твой поцелуй
Общее
Полное имя                               : C:\Users\PASHA\Desktop\Стелла - Позови (1994)\07. Женщина-вампир.m4a
Формат                                   : MPEG-4
Профиль формата                          : Apple audio with iTunes info
Идентификатор кодека                     : M4A
Размер файла                             : 11,4 Мбайт
Продолжительность                        : 4 м. 20 с.
Режим общего битрейта                    : Переменный
Общий поток                              : 367 Кбит/сек
Альбом                                   : Позови
Трек                                     : Женщина-вампир
Трек/Положение                           : 7
Трек/Всего                               : 11
Исполнитель                              : Александр Кирсанов и гр. Стелла
Жанр                                     : Pop
Дата записи                              : 1994
Дата кодирования                         : UTC 2014-08-14 06:42:10
Дата пометки                             : UTC 2014-08-14 06:42:17
Программа кодирования                    : qaac 2.19, CoreAudioToolbox 7.9.8.3, AAC-LC Encoder, TVBR q127, Quality 96
Примечание                               : ExactAudioCopy v0.99pb5
DISCID                                   : 920A580B
Аудио
Идентификатор                            : 1
Формат                                   : AAC
Формат/Информация                        : Advanced Audio Codec
Профиль формата                          : LC
Идентификатор кодека                     : 40
Продолжительность                        : 4 м. 20 с.
Вид битрейта                             : Переменный
Битрейт                                  : 365 Кбит/сек
Максимальный битрейт                     : 417 Кбит/сек
Каналы                                   : 2 канала
Расположение каналов                     : Front: L R
Частота                                  : 44,1 КГц
Метод сжатия                             : С потерями
Размер потока                            : 11,3 Мбайт (100%)
Дата кодирования                         : UTC 2014-08-14 06:42:10
Дата пометки                             : UTC 2014-08-14 06:42:17
Меню
00:00:00.047                             : Женщина-вампир
Общее
Полное имя                               : C:\Users\PASHA\Desktop\Стелла - Позови (1994)\08. Позови (mix).m4a
Формат                                   : MPEG-4
Профиль формата                          : Apple audio with iTunes info
Идентификатор кодека                     : M4A
Размер файла                             : 9,11 Мбайт
Продолжительность                        : 3 м. 33 с.
Режим общего битрейта                    : Переменный
Общий поток                              : 358 Кбит/сек
Альбом                                   : Позови
Трек                                     : Позови (mix)
Трек/Положение                           : 8
Трек/Всего                               : 11
Исполнитель                              : Александр Кирсанов и гр. Стелла
Жанр                                     : Pop
Дата записи                              : 1994
Дата кодирования                         : UTC 2014-08-14 06:42:10
Дата пометки                             : UTC 2014-08-14 06:42:16
Программа кодирования                    : qaac 2.19, CoreAudioToolbox 7.9.8.3, AAC-LC Encoder, TVBR q127, Quality 96
Примечание                               : ExactAudioCopy v0.99pb5
DISCID                                   : 920A580B
Аудио
Идентификатор                            : 1
Формат                                   : AAC
Формат/Информация                        : Advanced Audio Codec
Профиль формата                          : LC
Идентификатор кодека                     : 40
Продолжительность                        : 3 м. 33 с.
Вид битрейта                             : Переменный
Битрейт                                  : 353 Кбит/сек
Максимальный битрейт                     : 400 Кбит/сек
Каналы                                   : 2 канала
Расположение каналов                     : Front: L R
Частота                                  : 44,1 КГц
Метод сжатия                             : С потерями
Размер потока                            : 9,07 Мбайт (100%)
Дата кодирования                         : UTC 2014-08-14 06:42:10
Дата пометки                             : UTC 2014-08-14 06:42:16
Меню
00:00:00.047                             : Позови (mix)
Общее
Полное имя                               : C:\Users\PASHA\Desktop\Стелла - Позови (1994)\09. Слёзы любви.m4a
Формат                                   : MPEG-4
Профиль формата                          : Apple audio with iTunes info
Идентификатор кодека                     : M4A
Размер файла                             : 9,62 Мбайт
Продолжительность                        : 3 м. 50 с.
Режим общего битрейта                    : Переменный
Общий поток                              : 349 Кбит/сек
Альбом                                   : Позови
Трек                                     : Слёзы любви
Трек/Положение                           : 9
Трек/Всего                               : 11
Исполнитель                              : Александр Кирсанов и гр. Стелла
Жанр                                     : Pop
Дата записи                              : 1994
Дата кодирования                         : UTC 2014-08-14 06:42:15
Дата пометки                             : UTC 2014-08-14 06:42:21
Программа кодирования                    : qaac 2.19, CoreAudioToolbox 7.9.8.3, AAC-LC Encoder, TVBR q127, Quality 96
Примечание                               : ExactAudioCopy v0.99pb5
DISCID                                   : 920A580B
Аудио
Идентификатор                            : 1
Формат                                   : AAC
Формат/Информация                        : Advanced Audio Codec
Профиль формата                          : LC
Идентификатор кодека                     : 40
Продолжительность                        : 3 м. 50 с.
Вид битрейта                             : Переменный
Битрейт                                  : 353 Кбит/сек
Максимальный битрейт                     : 393 Кбит/сек
Каналы                                   : 2 канала
Расположение каналов                     : Front: L R
Частота                                  : 44,1 КГц
Метод сжатия                             : С потерями
Размер потока                            : 9,57 Мбайт (100%)
Дата кодирования                         : UTC 2014-08-14 06:42:15
Дата пометки                             : UTC 2014-08-14 06:42:21
Меню
00:00:00.047                             : Слёзы любви
Общее
Полное имя                               : C:\Users\PASHA\Desktop\Стелла - Позови (1994)\10. Займись любовью.m4a
Формат                                   : MPEG-4
Профиль формата                          : Apple audio with iTunes info
Идентификатор кодека                     : M4A
Размер файла                             : 12,2 Мбайт
Продолжительность                        : 4 м. 57 с.
Режим общего битрейта                    : Переменный
Общий поток                              : 345 Кбит/сек
Альбом                                   : Позови
Трек                                     : Займись любовью
Трек/Положение                           : 10
Трек/Всего                               : 11
Исполнитель                              : Александр Кирсанов и гр. Стелла
Жанр                                     : Pop
Дата записи                              : 1994
Дата кодирования                         : UTC 2014-08-14 06:42:17
Дата пометки                             : UTC 2014-08-14 06:42:24
Программа кодирования                    : qaac 2.19, CoreAudioToolbox 7.9.8.3, AAC-LC Encoder, TVBR q127, Quality 96
Примечание                               : ExactAudioCopy v0.99pb5
DISCID                                   : 920A580B
Аудио
Идентификатор                            : 1
Формат                                   : AAC
Формат/Информация                        : Advanced Audio Codec
Профиль формата                          : LC
Идентификатор кодека                     : 40
Продолжительность                        : 4 м. 57 с.
Вид битрейта                             : Переменный
Битрейт                                  : 343 Кбит/сек
Максимальный битрейт                     : 383 Кбит/сек
Каналы                                   : 2 канала
Расположение каналов                     : Front: L R
Частота                                  : 44,1 КГц
Метод сжатия                             : С потерями
Размер потока                            : 12,2 Мбайт (100%)
Дата кодирования                         : UTC 2014-08-14 06:42:17
Дата пометки                             : UTC 2014-08-14 06:42:24
Меню
00:00:00.047                             : Займись любовью
Общее
Полное имя                               : C:\Users\PASHA\Desktop\Стелла - Позови (1994)\11. Валютный бар.m4a
Формат                                   : MPEG-4
Профиль формата                          : Apple audio with iTunes info
Идентификатор кодека                     : M4A
Размер файла                             : 10,8 Мбайт
Продолжительность                        : 4 м. 0 с.
Режим общего битрейта                    : Переменный
Общий поток                              : 376 Кбит/сек
Альбом                                   : Позови
Трек                                     : Валютный бар
Трек/Положение                           : 11
Трек/Всего                               : 11
Исполнитель                              : Александр Кирсанов и гр. Стелла
Жанр                                     : Pop
Дата записи                              : 1994
Дата кодирования                         : UTC 2014-08-14 06:42:18
Дата пометки                             : UTC 2014-08-14 06:42:24
Программа кодирования                    : qaac 2.19, CoreAudioToolbox 7.9.8.3, AAC-LC Encoder, TVBR q127, Quality 96
Примечание                               : ExactAudioCopy v0.99pb5
DISCID                                   : 920A580B
Аудио
Идентификатор                            : 1
Формат                                   : AAC
Формат/Информация                        : Advanced Audio Codec
Профиль формата                          : LC
Идентификатор кодека                     : 40
Продолжительность                        : 4 м. 0 с.
Вид битрейта                             : Переменный
Битрейт                                  : 375 Кбит/сек
Максимальный битрейт                     : 411 Кбит/сек
Каналы                                   : 2 канала
Расположение каналов                     : Front: L R
Частота                                  : 44,1 КГц
Метод сжатия                             : С потерями
Размер потока                            : 10,7 Мбайт (100%)
Дата кодирования                         : UTC 2014-08-14 06:42:18
Дата пометки                             : UTC 2014-08-14 06:42:24
Меню
00:00:00.047                             : Валютный бар

Отчёт Mp3tag:

Стелла - Позови (1994) | 112,85 MB | Folder Total 1 |
Folder 001 | Стелла - Позови (1994) | Album - Позови | 112,85 MB | 11 Files | 00:44:10 hrs | qaac 2.19, CoreAudioToolbox 7.9.8.3, AAC-LC Encoder, TVBR q127, Quality 96
001 | 04:25 min | 356 kbps  | 44100 Hz | 2 | AAC | 11,29 MB | 01. Позови | Позови
002 | 04:20 min | 367 kbps  | 44100 Hz | 2 | AAC | 11,40 MB | 02. Девочка без сердца | Девочка без сердца
003 | 04:01 min | 358 kbps  | 44100 Hz | 2 | AAC | 10,30 MB | 03. Вот и всё | Вот и всё
004 | 03:03 min | 327 kbps  | 44100 Hz | 2 | AAC | 7,17 MB | 04. Сколько долгих дней... | Сколько долгих дней...
005 | 03:12 min | 361 kbps  | 44100 Hz | 2 | AAC | 8,29 MB | 05. Пой душа | Пой душа
006 | 04:26 min | 355 kbps  | 44100 Hz | 2 | AAC | 11,29 MB | 06. Твой поцелуй | Твой поцелуй
007 | 04:20 min | 365 kbps  | 44100 Hz | 2 | AAC | 11,38 MB | 07. Женщина-вампир | Женщина-вампир
008 | 03:34 min | 356 kbps  | 44100 Hz | 2 | AAC | 9,11 MB | 08. Позови (mix) | Позови (mix)
009 | 03:51 min | 348 kbps  | 44100 Hz | 2 | AAC | 9,62 MB | 09. Слёзы любви | Слёзы любви
010 | 04:57 min | 343 kbps  | 44100 Hz | 2 | AAC | 12,22 MB | 10. Займись любовью | Займись любовью
011 | 04:01 min | 375 kbps  | 44100 Hz | 2 | AAC | 10,79 MB | 11. Валютный бар | Валютный бар

Спектрограмма:

Время раздачи: 24/7 (круглосуточно)
[Профиль] [ЛС]
Кто просматривает тему:

Показать сообщения:    

Текущее время: Сегодня 14:52

Часовой пояс: GMT



Вы не можете начинать темы
Вы не можете отвечать на сообщения
Вы не можете редактировать свои сообщения
Вы не можете удалять свои сообщения
Вы не можете голосовать в опросах
Вы не можете прикреплять файлы к сообщениям
Вы не можете скачивать файлы