Стелла и Звезда Востока / Stella und der Stern des Orients (Эрна Шмидт / Erna Schmidt) [2008, Германия, Приключения, комедия, семейный, SATRip] DVO (New Media)

 
Автор Сообщение

TorrentFilm ®

Пол:

Стаж: 2 года

Сообщений: 7741



Награды: Нет

Торрент-статистика

Создавать темы 14-Янв-2015 00:00

[Цитировать]

Стелла и Звезда Востока / Stella und der Stern des Orients
Страна: Германия
Жанр: Приключения, комедия, семейный
Год выпуска: 2008
Продолжительность: 01:21:07
Перевод: Профессиональный (двухголосый закадровый) - New Media / Gulli
Cубтитры: нет
Режиссер: Эрна Шмидт / Erna Schmidt
В ролях: Laura Berschuk, Хана Швамборн, Джулиус Ромер, Ганс Мартин Стир, Аксель Праль, Уве Кокиш, Эдда Лиш, Габриэла Мария Шмайде, Рут Глёс, Тим Уайлд, Отто Меллиес
Описание: 2005 год подходит к концу. 10-летняя Стелла проводит Новый год с родителями в старинном особняке своей умершей прабабушки Клементины. Стелла едва помнит старую леди, но маленький амулет из серебра, который ей достался от нее, это ее постоянный спутник. Когда Стелла без разрешения пробирается на чердак на вилле и обнаруживает скрытый лифт, для нее начинается новое путешествие в прошлое, на 100 лет назад в 1905 год.- -Качество видео: SATRip (Канал "Gulli")
Формат видео: AVI (Сэмпл)
Видео: 672x368 (1.83:1), 25 fps, XviD ~1145 kbps, 0.19 bit/pixel
Аудио: Русский, 48 kHz, MP3, 2 ch, ~128.00 kbps

MediaInfo

GeneralComplete name : Stella und der Stern des Orients.2008.Gulli.DVO.Olu6ka.aviFormat : AVIFormat/Info : Audio Video InterleaveFile size : 745 MiBDuration : 1h 21mnOverall bit rate : 1 284 KbpsWriting application : VirtualDubMod 1.5.10.3Writing library : VirtualDubMod build 2550/release
VideoID : 0Format : MPEG-4 VisualFormat profile : Advanced Simple@L5Format settings, BVOP : 1Format settings, QPel : NoFormat settings, GMC : No warppointsFormat settings, Matrix : CustomCodec ID : XVIDCodec ID/Hint : XviDDuration : 1h 21mnBit rate : 1 146 KbpsWidth : 672 pixelsHeight : 368 pixelsDisplay aspect ratio : 1.85:1Frame rate : 25.000 fpsColor space : YUVChroma subsampling : 4:2:0Bit depth : 8 bitsScan type : ProgressiveCompression mode : LossyBits/(Pixel*Frame) : 0.185Stream size : 665 MiB (89%)Writing library : XviD 73
AudioID : 1Format : MPEG AudioFormat version : Version 1Format profile : Layer 3Codec ID : 55Codec ID/Hint : MP3Duration : 1h 21mnBit rate mode : ConstantBit rate : 128 KbpsChannel count : 2 channelsSampling rate : 48.0 KHzCompression mode : LossyStream size : 74.3 MiB (10%)Alignment : Aligned on interleavesInterleave, duration : 40 ms (1.00 video frame)Interleave, preload duration : 504 msWriting library : LAME3.99rEncoding settings : -m s -V 4 -q 2 -lowpass 17 -b 128

Скриншоты

Спасибо xfiles за исходник!Раздача от группы
[Профиль] [ЛС]

Создавать темы 06-Авг-2015 22:48 (спустя 6 месяцев 23 дня)

Топик был перенесен из форума Фильмы до 2014 года в форум Фильмы до 2012 года
sergej644
 

Создавать темы 12-Июн-2016 08:51 (спустя 1 год 4 месяца)

Топик был перенесен из форума Фильмы 2011 года в форум Фильмы 2006-2008 года
Russian Mafia
 
Показать сообщения:    

Текущее время: Сегодня 18:28

Часовой пояс: GMT



Вы не можете начинать темы
Вы не можете отвечать на сообщения
Вы не можете редактировать свои сообщения
Вы не можете удалять свои сообщения
Вы не можете голосовать в опросах
Вы не можете прикреплять файлы к сообщениям
Вы не можете скачивать файлы