Стелла и Звезда Востока / Stella und der Stern des Orients (Эрна Шмидт / Erna Schmidt) [2008, Германия, Приключения, комедия, семейный, DVB] DVO (New Media)

 
Автор Сообщение

TorrentFilm ®

Пол:

Стаж: 2 года

Сообщений: 7741



Награды: Нет

Торрент-статистика

Создавать темы 11-Янв-2015 00:01

[Цитировать]

Стелла и Звезда Востока / Stella und der Stern des Orients- Страна: Германия
Жанр: Приключения, комедия, семейный
Год выпуска: 2008
Продолжительность:
Перевод: Профессиональный (двухголосый закадровый) - New Media / Gulli
Cубтитры: нет-Режиссер: Эрна Шмидт / Erna Schmidt
В ролях: Laura Berschuk, Хана Швамборн, Джулиус Ромер, Ганс Мартин Стир, Аксель Праль, Уве Кокиш, Эдда Лиш, Габриэла Мария Шмайде, Рут Глёс, Тим Уайлд, Отто Меллиес- |-Описание: 2005 год подходит к концу. 10-летняя Стелла проводит Новый год с родителями в старинном особняке своей умершей прабабушки Клементины. Стелла едва помнит старую леди, но маленький амулет из серебра, который ей достался от нее, это ее постоянный спутник. Когда Стелла без разрешения пробирается на чердак на вилле и обнаруживает скрытый лифт, для нее начинается новое путешествие в прошлое, на 100 лет назад в 1905 год.-Семпл: http://sendfile.su/1071935-Качество видео: DVB (Канал "Gulli")
Формат видео: MPG
Видео: 720x576 (4:3) @ 768x576, 25.000 fps, MPEG-2 Video, ~3799 Kbps, 0.366 bits/pixel
Аудио: Русский, 48.0 KHz, MPEG-1 Audio layer 2, 2 ch, 192 Kbps

MediaInfo

GeneralComplete name : Stella und der Stern des Orients 2008 Gulli DVO New Media.mpgFormat : MPEG-PSFile size : 2.31 GiBDuration : 1h 21mnOverall bit rate mode : VariableOverall bit rate : 4 072 Kbps
VideoID : 224 (0xE0)Format : MPEG VideoFormat version : Version 2Format profile : Main@MainFormat settings, BVOP : YesFormat settings, Matrix : CustomFormat settings, GOP : VariableFormat settings, picture structure : FrameDuration : 1h 21mnBit rate mode : VariableBit rate : 3 799 KbpsMaximum bit rate : 15.0 MbpsWidth : 720 pixelsHeight : 576 pixelsDisplay aspect ratio : 4:3Frame rate : 25.000 fpsStandard : PALColor space : YUVChroma subsampling : 4:2:0Bit depth : 8 bitsScan type : InterlacedScan order : Top Field FirstCompression mode : LossyBits/(Pixel*Frame) : 0.366Time code of first frame : 00:00:00:00Time code source : Group of pictures headerGOP, Open/Closed : OpenStream size : 2.15 GiB (93%)GOP, Open/Closed of first frame : Closed
AudioID : 192 (0xC0)Format : MPEG AudioFormat version : Version 1Format profile : Layer 2Duration : 1h 21mnBit rate mode : ConstantBit rate : 192 KbpsChannel(s) : 2 channelsSampling rate : 48.0 KHzCompression mode : LossyStream size : 111 MiB (5%)

Скриншоты

[Профиль] [ЛС]

Создавать темы 06-Авг-2015 22:48 (спустя 6 месяцев 26 дней)

Топик был перенесен из форума Фильмы до 2014 года в форум Фильмы до 2012 года
sergej644
 

Создавать темы 12-Июн-2016 08:51 (спустя 1 год 5 месяцев)

Топик был перенесен из форума Фильмы 2011 года в форум Фильмы 2006-2008 года
Russian Mafia
 
Показать сообщения:    

Текущее время: Сегодня 08:58

Часовой пояс: GMT



Вы не можете начинать темы
Вы не можете отвечать на сообщения
Вы не можете редактировать свои сообщения
Вы не можете удалять свои сообщения
Вы не можете голосовать в опросах
Вы не можете прикреплять файлы к сообщениям
Вы не можете скачивать файлы