Стеклянный замок / The Glass Castle (2017) BDRip 1080p | iTunes

 
Автор Сообщение

BOSS ®

Пол:

Стаж: 3 года 8 месяцев

Сообщений: 10631

Откуда: ODESSA



Награды: 22 (Подробнее)

Top Keeper 4 (Количество: 1) Top Seeder 5 (Количество: 1) Mega Releaser 4 (Количество: 1)
Торрент-статистика

Создавать темы 21-Янв-2018 16:33

[Цитировать]

Информация о фильме
Название: Стеклянный замок
Оригинальное название: The Glass Castle
Год выпуска: 2017
Жанр: драма, биография
Режиссер: Дестин Креттон
В ролях: Бри Ларсон, Вуди Харрельсон, Наоми Уоттс, Элла Андерсон, Чандлер Хэд, Макс Гринфилд, Джош Барклай Карас, Чарли Шотуэлл, Иэн Армитедж, Сара Снук
О фильме:
Девочка растет в неблагополучной семье нонконформистов-кочевников. Ее мать эксцентричная артистка, а отец — алкоголик. Родители пытаются вселить надежду в ее детское воображение, чтобы хоть как-то отвлечь внимание от бедности.

Страна: США
Продолжительность: 02:06:56
Перевод: Профессиональный (одноголосый закадровый) iTunes
Файл
Формат: MKV
Качество BDRip 1080p [PlayHD]
Видео: 1920x798 at 23.976 fps, x264@L4.1, ~12.6 Mbps avg
Аудио#1: Russian: 48 kHz, AC3, 3/2 (L,C,R,l,r) + LFE ch, ~384.00 kbps avg
Аудио#2: English: 48 kHz, AC3, 3/2 (L,C,R,l,r) + LFE ch, ~640.00 kbps avg
Cубтитры: английские
Сэмпл

MediaInfo

General
Unique ID : 238687649041770419473485464868196427103 (0xB39191AE35EDBEA58E0EF8970D6BA55F)
Complete name : The.Glass.Castle.2017.1080p.BluRay.Rus.Eng.mkv
Format : Matroska
Format version : Version 2
File size : 12.1 GiB
Duration : 2 h 6 min
Overall bit rate : 13.6 Mb/s
Encoded date : UTC 2018-01-18 23:27:29
Writing application : mkvmerge v8.3.0 ('Over the Horizon') 64bit
Writing library : libebml v1.3.1 + libmatroska v1.4.2
Video
ID : 1
Format : AVC
Format/Info : Advanced Video Codec
Format profile : High@L4.1
Format settings : CABAC / 5 Ref Frames
Format settings, CABAC : Yes
Format settings, ReFrames : 5 frames
Codec ID : V_MPEG4/ISO/AVC
Duration : 2 h 6 min
Bit rate : 12.6 Mb/s
Width : 1 920 pixels
Height : 798 pixels
Display aspect ratio : 2.40:1
Frame rate mode : Constant
Frame rate : 23.976 (24000/1001) FPS
Color space : YUV
Chroma subsampling : 4:2:0
Bit depth : 8 bits
Scan type : Progressive
Bits/(Pixel*Frame) : 0.343
Stream size : 11.2 GiB (92%)
Title : The.Glass.Castle.2017.1080p.BluRay.DD-EX.5.1.x264-playHD
Writing library : x264 core 148 r2705+54 9f484c1 t_mod_Custom [8-bit@all X86_64]
Encoding settings : cabac=1 / ref=5 / deblock=1:-3:-3 / analyse=0x3:0x133 / me=umh / subme=10 / psy=1 / fade_compensate=0.00 / psy_rd=1.00:0.00 / mixed_ref=1 / me_range=32 / chroma_me=1 / trellis=2 / 8x8dct=1 / cqm=0 / deadzone=21,11 / fast_pskip=0 / chroma_qp_offset=-2 / threads=6 / lookahead_threads=1 / sliced_threads=0 / nr=0 / decimate=0 / interlaced=0 / bluray_compat=0 / constrained_intra=0 / fgo=0 / bframes=9 / b_pyramid=2 / b_adapt=2 / b_bias=0 / direct=3 / weightb=1 / open_gop=0 / weightp=2 / keyint=250 / keyint_min=23 / scenecut=40 / intra_refresh=0 / rc=crf / mbtree=0 / crf=15.9000 / qcomp=0.60 / qpmin=0:0:0 / qpmax=69:69:69 / qpstep=4 / ip_ratio=1.35 / pb_ratio=1.25 / aq=3:0.85 / aq-sensitivity=10.00 / aq-factor=1.00:1.00:1.00 / aq2=0 / aq3=0 / zones=0,108,crf=13.7/233,503,crf=13.7/175539,182616,b=0.7
Language : English
Default : Yes
Forced : No
Audio #1
ID : 2
Format : AC-3
Format/Info : Audio Coding 3
Codec ID : A_AC3
Duration : 2 h 6 min
Bit rate mode : Constant
Bit rate : 384 kb/s
Channel(s) : 6 channels
Channel positions : Front: L C R, Side: L R, LFE
Sampling rate : 48.0 kHz
Frame rate : 31.250 FPS (1536 SPF)
Bit depth : 16 bits
Compression mode : Lossy
Stream size : 349 MiB (3%)
Language : Russian
Service kind : Complete Main
Default : Yes
Forced : No
Audio #2
ID : 3
Format : AC-3
Format/Info : Audio Coding 3
Codec ID : A_AC3
Duration : 2 h 6 min
Bit rate mode : Constant
Bit rate : 640 kb/s
Channel(s) : 6 channels
Channel positions : Front: L C R, Side: L R, LFE
Sampling rate : 48.0 kHz
Frame rate : 31.250 FPS (1536 SPF)
Bit depth : 16 bits
Compression mode : Lossy
Stream size : 581 MiB (5%)
Language : English
Service kind : Complete Main
Default : No
Forced : No
Text
ID : 4
Format : UTF-8
Codec ID : S_TEXT/UTF8
Codec ID/Info : UTF-8 Plain Text
Duration : 2 h 1 min
Bit rate : 61 b/s
Count of elements : 1640
Stream size : 55.1 KiB (0%)
Language : English
Default : No
Forced : No
Menu
00:00:00.000 : :00:00:00.000
00:08:15.453 : :00:08:15.453
00:15:33.182 : :00:15:33.182
00:21:33.292 : :00:21:33.292
00:29:25.931 : :00:29:25.931
00:37:11.187 : :00:37:11.187
00:43:54.840 : :00:43:54.840
00:51:53.485 : :00:51:53.485
01:00:29.334 : :01:00:29.334
01:07:59.659 : :01:07:59.659
01:14:05.816 : :01:14:05.816
01:24:52.504 : :01:24:52.504
01:29:27.696 : :01:29:27.696
01:37:47.236 : :01:37:47.236
01:45:53.263 : :01:45:53.263
01:55:49.484 : :01:55:49.484

Скриншоты



[Профиль] [ЛС]
Кто просматривает тему:

Форум Тема Автор Размер
Pop (Pop,Dance) Время и Стекло - Время Истекло - 2015, MP3, 320 kbps sergej644 125 MB
Отечественные cериалы Письма на стекле / Серии: 1-16 из 16 (Рената Грицкова) [2014, Мелодрама, HDTVRip-AVC] sergej644 10.74 GB
Боевики, детективы, триллеры Сергей Устинов - Стеклянный дом (2016) MP3 Swager 513 MB
Отечественные мультфильмы Старик и море / The Old Man and the Sea (Александр Петров) [1999, Анимация, живопись по стеклу, DVDRip-AVC] painkiller 414 MB
Сhanson Стекловата (СтеклоVата) - Дискография (3 альбома + Неизданное) 2003-2006, MP3, 128-320 kbps, Pop, Детский Шансон Russian Mafia 386 MB
R.G.TorrentFilm Video Стеклянная челюсть / Стеклянный подбородок / Glass Chin (Ноа Бушел / Noah Buschel) [2014, США, Триллер, драма, WEB-DLRip] DVO (Parovoz Production) Один 777 736 MB
Фильмы 2014 года Стеклянные марионетки / Glassdukkene (Нильс Гауп)[2014,детектив, триллер] WEBRip | L1 Richi Keeper 1.37 GB
Фильмы (HD Rips | 720p, 1080p) Стеклянный замок / The Glass Castle (2017) BDRip 1080p | L BOSS 10.08 GB
Показать сообщения:    

Текущее время: Сегодня 08:31

Часовой пояс: GMT



Вы не можете начинать темы
Вы не можете отвечать на сообщения
Вы не можете редактировать свои сообщения
Вы не можете удалять свои сообщения
Вы не можете голосовать в опросах
Вы не можете прикреплять файлы к сообщениям
Вы не можете скачивать файлы