Стая / Die horde / La horde (Янник Даан / Yannick Dahan, Бенжамен Роше / Benjamin Rocher) [2009, Франция, фантастика, HDRip-AVC] [Расширенная версия] MVO (ВГТРК) + Original Fre

 
Автор Сообщение

TorrentFilm ®

Пол:

Стаж: 2 года

Сообщений: 7741



Награды: Нет

Торрент-статистика

Создавать темы 21-Дек-2015 00:11

[Цитировать]

СтаяDie hordeLa hordeРасширенная версия
Страна: Франция
Жанр: фантастика
Год выпуска: 2009
Продолжительность: 01:41:39-Перевод: Профессиональный (многоголосый закадровый) ВГТРК
Фильм озвучен по заказу Всероссийской государственной телерадиокомпании в 2011 году
Cубтитры: нет
Оригинальная аудиодорожка: французский-Режиссер: Янник Даан / Yannick Dahan, Бенжамен Роше / Benjamin Rocher
В ролях: Жан-Пьер Мартэн, Клод Перрон, Эрик Эбони, Джо Престиа, Орельен Рекуан, Ив Пиньо, Дуду Маста, Антуан Оппенхайм, Ален Фиглаж-Описание: Четверо парижских полицейских собираются совершить нападение на банду, чтобы отомстить за своего убитого товарища. Для этого ночью пробираются в многоэтажный дом, находящийся в трущобах Парижа, где в одной из квартир засели гангстеры. Однако врасплох застать их не удаётся, и копы попадают в плен. Кто знает, чем бы закончилось дело, но тут здание окружают многочисленные зомби. Теперь врагам придётся объединиться, чтобы выжить в этой неравной схватке...-
Доп. информация:
О переводе: Перевод на трекере появляется впервые
На расширеннные места - вставки Вячеслава Замеза
00:02:48 - 00:04:22
00:06:28 - 00:09:48
00:12:36 - 00:12:45
Звук качеством "не страдает"

Синхронизация: mister55555-Сэмпл: минута45сек-Качество видео: HDRip (спасибо Тарантиныч)
Формат видео: MKV
Видео: AVC, 720x304, 2,35:1, 23,976 кадра/сек, 1600 Кбит/сек
Аудио 1: AC-3, 48,0 КГц, 192 Кбит/сек, 2 канала (многоголосый ВГТРК)
Аудио 2: AC-3, 48,0 КГц, 192 Кбит/сек, 2 канала (французская оригинальная дорожка)

MediaInfo

XviD4PSP 6.0.4 DAILY 9384
----------------------------------------
17.12.2015 21:35:25 ENCODING STARTED
----------------------------------------
Input files:
Стая.2009.BDRip.1080p.mkv 6099.18s min: 0000.00s max: 6099.18s start: 0000.00s
----------------------------------------
Input file info:
Format: MATROSKA,WEBM 9.0gb 01:41:39.181 146234 frames
Стая(Die Horde/La Horde).2009.BDRip.1080p
Video: H264 1920x816p 2.353 YUV420P Progressive L4.1 B2 R5 23.976fps
----------------------------------------
17.12.2015 21:35:26 CONFIG OUTPUT STREAMS
----------------------------------------
resize=720:304:LANCZOS
Init H264 codec, threads: 4, stream: 0
Video codec 0 timebase: 417083 / 20000000 > 1127 / 27021
Video stream 0 timebase: 1 / 1000 > 1 / 1000
17.12.2015 21:35:34 MULTIPASS ENCODING: last pass-Общее
Уникальный идентификатор : 247731282588733668790697613659798038768 (0xBA5F4F3D5A27EA68944E7CF843D0E8F0)
Полное имя : Стая.2009.HDRip.mkv
Формат : Matroska
Версия формата : Version 2
Размер файла : 1,41 Гбайт
Продолжительность : 1 ч. 41 м.
Общий поток : 1980 Кбит/сек
Название фильма : Стая(Die Horde/La Horde).2009.HDRip
Дата кодирования : UTC 2015-12-18 10:18:40
Программа кодирования : mkvmerge v8.3.0 ('Over the Horizon') 32bit
Библиотека кодирования : libebml v1.3.1 + libmatroska v1.4.2
Видео
Идентификатор : 1
Формат : AVC
Формат/Информация : Advanced Video Codec
Профиль формата : High@L4.1
Параметр CABAC формата : Да
Параметр ReFrames формата : 15 кадров
Идентификатор кодека : V_MPEG4/ISO/AVC
Продолжительность : 1 ч. 41 м.
Битрейт : 1600 Кбит/сек
Ширина : 720 пикселей
Высота : 304 пикселя
Соотношение сторон : 2,35:1
Соотношение сторон в оригинале : 2,35:1
Режим частоты кадров : Постоянный
Частота кадров : 23,976 кадра/сек
Цветовое пространство : YUV
Субдискретизация насыщенности : 4:2:0
Битовая глубина : 8 бит
Тип развёртки : Прогрессивная
Бит/(Пиксели*Кадры) : 0.305
Размер потока : 1,11 Гбайт (79%)
Заголовок : Стая(Die Horde/La Horde).2009.HDRip
Библиотека кодирования : x264 core 128 r2216M 198a7ea
Настройки программы : cabac=1 / ref=15 / deblock=1:-1:-1 / analyse=0x3:0x133 / me=tesa / subme=10 / psy=1 / psy_rd=2.00:0.15 / mixed_ref=1 / me_range=48 / chroma_me=1 / trellis=2 / 8x8dct=1 / cqm=0 / deadzone=21,11 / fast_pskip=1 / chroma_qp_offset=-3 / threads=4 / lookahead_threads=1 / sliced_threads=0 / nr=0 / decimate=1 / interlaced=0 / bluray_compat=0 / constrained_intra=0 / bframes=15 / b_pyramid=2 / b_adapt=2 / b_bias=0 / direct=3 / weightb=1 / open_gop=0 / weightp=2 / keyint=250 / keyint_min=25 / scenecut=40 / intra_refresh=0 / rc_lookahead=60 / rc=2pass / mbtree=1 / bitrate=1600 / ratetol=1.0 / qcomp=0.60 / qpmin=10 / qpmax=51 / qpstep=4 / cplxblur=20.0 / qblur=0.5 / ip_ratio=1.40 / aq=1:1.00
Язык : French
Default : Да
Forced : Нет
Аудио #1
Идентификатор : 2
Формат : AC-3
Формат/Информация : Audio Coding 3
Расширение режима : CM (complete main)
Параметр Endianness формата : Big
Идентификатор кодека : A_AC3
Продолжительность : 1 ч. 41 м.
Вид битрейта : Постоянный
Битрейт : 192 Кбит/сек
Каналы : 2 канала
Расположение каналов : Front: L R
Частота : 48,0 КГц
Частота кадров : 31,250 кадров/сек (1536 spf)
Метод сжатия : С потерями
Размер потока : 140 Мбайт (10%)
Заголовок : многоголосый ВГТРК 2011 год
Язык : Russian
Default : Да
Forced : Нет
Аудио #2
Идентификатор : 3
Формат : AC-3
Формат/Информация : Audio Coding 3
Расширение режима : CM (complete main)
Параметр Endianness формата : Big
Идентификатор кодека : A_AC3
Продолжительность : 1 ч. 41 м.
Вид битрейта : Постоянный
Битрейт : 192 Кбит/сек
Каналы : 2 канала
Расположение каналов : Front: L R
Частота : 48,0 КГц
Частота кадров : 31,250 кадров/сек (1536 spf)
Метод сжатия : С потерями
Размер потока : 140 Мбайт (10%)
Заголовок : оригинал
Язык : French
Default : Нет
Forced : Нет

Скриншот c названием фильма

[Профиль] [ЛС]

Создавать темы 12-Июн-2016 07:56 (спустя 5 месяцев 22 дня)

Топик был перенесен из форума Фильмы 2011 года в форум Фильмы 2009 года
Russian Mafia
 
Показать сообщения:    

Текущее время: Сегодня 10:45

Часовой пояс: GMT



Вы не можете начинать темы
Вы не можете отвечать на сообщения
Вы не можете редактировать свои сообщения
Вы не можете удалять свои сообщения
Вы не можете голосовать в опросах
Вы не можете прикреплять файлы к сообщениям
Вы не можете скачивать файлы