Стать Джоном Ленноном / Nowhere Boy (2009) BDRip 720p от MediaClub | D

 
Автор Сообщение

sergej644 ®

Пол:

Стаж: 4 года 11 месяцев

Сообщений: 6040

Откуда: Soviet Union



Награды: Нет

Торрент-статистика

Создавать темы 27-Окт-2014 18:12

[Цитировать]

Информация о фильме
Название: Стать Джоном Ленноном
Оригинальное название: Nowhere Boy
Год выпуска: 2009
Жанр: Драма, музыка, биография
Режиссер: Сэм Тейлор-Джонсон
В ролях: Аарон Тейлор-Джонсон, Кристин Скотт Томас, Томас Броди Сэнгстер, Энн-Мэри Дафф, Дэвид Моррисси, Дэвид Трелфолл, Офелия Ловибонд, Сэм Белл, Джек МакЭлхоун, Лес Лавдей
О фильме: Художественный биографический фильм о Джоне Ленноне. Фильм повествует о детстве и юности Джона - от рождения и до конца 50-х годов, когда был сформирован первый музыкальный коллектив с его участием - группа «The Quarrymen». Особым лейтмотивом будут показаны отношения Джона с матерью.

Страна: Канада, Великобритания
Студия: Ecosse Films, Film4, UK Film Council
Продолжительность: 01:39:12
Перевод: Дублированный
Файл
Кодек: x264
Качество: BDRip 720p
Видео: MPEG-4 AVC, 3505 Кбит/с, 1280x544, 23.976 кадр/с
Аудио #1: Русский (AC3, 6 ch, 384 Кбит/с) / Дублированный
Аудио #2: Английский (DTS, 6 ch, 1509 Кбит/с)
Субтитры: Русские, английские (SDH)
Семпл

MI

x264 [info]: frame I:1061 Avg QP:15.18 size:108350
x264 [info]: frame P:29459 Avg QP:17.89 size: 37727
x264 [info]: frame B:112209 Avg QP:19.47 size: 12261
==================================
Уникальный идентификатор : 210894617281675095677890403991239686647 (0x9EA8D36B1EF857848AAEEA48184279F7)
Полное имя : E:MCStat.Djonom.Lenonom.2009.x264.BDRip(720p)-MediaClubStat.Djonom.Lenonom.2009.x264.BDRip(720p)-MediaClub.mkv
Формат : Matroska
Версия формата : Version 4 / Version 2
Размер файла : 3,74 Гбайт
Продолжительность : 1 ч. 39 м.
Общий поток : 5393 Кбит/сек
Название фильма : -= Release MediaClub =-
Дата кодирования : UTC 2014-10-24 20:13:02
Программа кодирования : mkvmerge v7.3.0 ('Nouages') 64bit built on Oct 22 2014 18:53:34
Библиотека кодирования : libebml v1.3.0 + libmatroska v1.4.1
DURATION : 01:39:11.947000000
NUMBER_OF_FRAMES : 557995
NUMBER_OF_BYTES : 1122685940
_STATISTICS_WRITING_APP : mkvmerge v7.3.0 ('Nouages') 64bit built on Oct 22 2014 18:53:34
_STATISTICS_WRITING_DATE_UTC : 2014-10-24 20:13:02
_STATISTICS_TAGS : BPS DURATION NUMBER_OF_FRAMES NUMBER_OF_BYTES
Attachment : Yes / Yes
Видео
Идентификатор : 1
Формат : AVC
Формат/Информация : Advanced Video Codec
Профиль формата : High@L4.1
Параметр CABAC формата : Да
Параметр ReFrames формата : 8 кадров
Идентификатор кодека : V_MPEG4/ISO/AVC
Продолжительность : 1 ч. 39 м.
Битрейт : 3505 Кбит/сек
Ширина : 1280 пикселей
Высота : 544 пикселя
Соотношение сторон : 2,35:1
Режим частоты кадров : Постоянный
Частота кадров : 23,976 кадра/сек
Цветовое пространство : YUV
Субдискретизация насыщенности : 4:2:0
Битовая глубина : 8 бит
Тип развёртки : Прогрессивная
Бит/(Пиксели*Кадры) : 0.210
Размер потока : 2,35 Гбайт (63%)
Заголовок : Stat.Djonom.Lenonom.2009.x264.BDRip(720p)-neni
Библиотека кодирования : x264 core 142 r2409+42 04be48a tMod [8-bit@4:2:0 X86_64]
Настройки программы : cabac=1 / ref=8 / deblock=1:-3:-3 / analyse=0x3:0x133 / me=umh / subme=11 / psy=1 / fade_compensate=0.00 / psy_rd=1.00:0.15 / mixed_ref=1 / me_range=48 / chroma_me=1 / trellis=2 / 8x8dct=1 / cqm=0 / deadzone=21,11 / fast_pskip=0 / chroma_qp_offset=-3 / threads=9 / lookahead_threads=1 / sliced_threads=0 / nr=0 / decimate=0 / interlaced=0 / bluray_compat=0 / constrained_intra=0 / fgo=0 / bframes=9 / b_pyramid=2 / b_adapt=2 / b_bias=0 / direct=3 / weightb=1 / open_gop=0 / weightp=2 / keyint=240 / keyint_min=23 / scenecut=40 / intra_refresh=0 / rc=2pass / mbtree=0 / bitrate=3505 / ratetol=1.0 / qcomp=0.60 / qpmin=0:0:0 / qpmax=69:69:69 / qpstep=4 / cplxblur=20.0 / qblur=0.5 / ip_ratio=1.40 / pb_ratio=1.30 / aq=2:1.00 / aq-sensitivity=10.00 / aq-factor=1.00:1.00:1.00 / aq2=0 / aq3=0
Язык : English
Default : Да
Forced : Нет
DURATION : 01:39:12.989000000
NUMBER_OF_FRAMES : 142729
NUMBER_OF_BYTES : 2602188444
_STATISTICS_WRITING_APP : mkvmerge v7.3.0 ('Nouages') 64bit built on Oct 22 2014 18:53:34
_STATISTICS_WRITING_DATE_UTC : 2014-10-24 20:13:02
_STATISTICS_TAGS : BPS DURATION NUMBER_OF_FRAMES NUMBER_OF_BYTES
Аудио #1
Идентификатор : 2
Формат : AC-3
Формат/Информация : Audio Coding 3
Расширение режима : CM (complete main)
Параметр Endianness формата : Big
Идентификатор кодека : A_AC3
Продолжительность : 1 ч. 39 м.
Вид битрейта : Постоянный
Битрейт : 384 Кбит/сек
Каналы : 6 каналов
Расположение каналов : Front: L C R, Side: L R, LFE
Частота : 48,0 КГц
Битовая глубина : 16 бит
Метод сжатия : С потерями
Размер потока : 273 Мбайт (7%)
Заголовок : DUB, AC3, 6 ch, 384 Kbps, 48.0 KHz
Язык : Russian
Default : Да
Forced : Нет
Аудио #2
Идентификатор : 3
Формат : DTS
Формат/Информация : Digital Theater Systems
Режим : 16
Параметр Endianness формата : Big
Идентификатор кодека : A_DTS
Продолжительность : 1 ч. 39 м.
Вид битрейта : Постоянный
Битрейт : 1509 Кбит/сек
Каналы : 6 каналов
Расположение каналов : Front: L C R, Side: L R, LFE
Частота : 48,0 КГц
Битовая глубина : 24 бит
Метод сжатия : С потерями
Размер потока : 1,05 Гбайт (28%)
Заголовок : Original, DTS, 6 ch, 1509 Kbps, 48.0 KHz
Язык : English
Default : Нет
Forced : Нет
Текст #1
Идентификатор : 4
Формат : UTF-8
Идентификатор кодека : S_TEXT/UTF8
Идентификатор кодека/Информация : UTF-8 Plain Text
Заголовок : RUS
Язык : Russian
Default : Нет
Forced : Нет
Текст #2
Идентификатор : 5
Формат : UTF-8
Идентификатор кодека : S_TEXT/UTF8
Идентификатор кодека/Информация : UTF-8 Plain Text
Заголовок : ENG
Язык : English
Default : Нет
Forced : Нет
Меню
00:00:00.000 : :Chapter 01
00:06:30.597 : :Chapter 02
00:11:10.001 : :Chapter 03
00:18:08.545 : :Chapter 04
00:23:33.119 : :Chapter 05
00:29:39.944 : :Chapter 06
00:36:10.877 : :Chapter 07
00:41:27.568 : :Chapter 08
00:48:06.300 : :Chapter 09
00:54:44.739 : :Chapter 10
00:59:07.001 : :Chapter 11
01:05:55.451 : :Chapter 12
01:12:30.054 : :Chapter 13
01:17:31.854 : :Chapter 14
01:24:15.008 : :Chapter 15
01:30:04.232 : :Chapter 16

Скриншоты


Релиз от: Rip by
[Профиль] [ЛС]

Создавать темы 06-Авг-2015 23:01 (спустя 9 месяцев 10 дней)

Топик был перенесен из форума Фильмы до 2014 года в форум Фильмы до 2012 года
sergej644
 

Создавать темы 12-Июн-2016 08:48 (спустя 1 год 7 месяцев)

Топик был перенесен из форума Фильмы 2011 года в форум Фильмы 2009 года
Russian Mafia
 
Показать сообщения:    

Текущее время: Сегодня 00:49

Часовой пояс: GMT



Вы не можете начинать темы
Вы не можете отвечать на сообщения
Вы не можете редактировать свои сообщения
Вы не можете удалять свои сообщения
Вы не можете голосовать в опросах
Вы не можете прикреплять файлы к сообщениям
Вы не можете скачивать файлы