Статус: Свободен (Павел Руминов) [2015, Россия, комедия, мелодрама, WEB-DL 720p]

 
Автор Сообщение

TorrentFilm ®

Пол:

Стаж: 1 год 11 месяцев

Сообщений: 7741



Награды: Нет

Торрент-статистика

Создавать темы 08-Мар-2016 00:09

[Цитировать]

Статус: Свободен
Страна: Россия
Жанр: комедия, мелодрама
Год выпуска: 2015
Продолжительность: 01:38:48
Перевод: Не требуется
Cубтитры: нет--Режиссер: Павел Руминов--В ролях: Данила Козловский, Елизавета Боярская, Владимир Селезнев, Игорь Войнаровский, Наталья Анисимова, Паулина Андреева, Надежда Звенигородская, Милош Руминов, Михаил Крылов, Катрин Асси--Описание: Никита и Афина - идеальная пара... Как палочки Твикс. Как Бред Питт и Анджелина Джоли. Но... только по мнению Никиты. Внезапно Афина сообщает, что уходит от него. Причем - к 40-летнему стоматологу. Никита не согласен с таким поворотом судьбы и обещает Афине, что вернет ее за неделю. Что готов сделать отчаянный стэндапер, чтобы вернуть свою любовь?--Доп. информация: | КиноПоиск | Сэмпл--Тип релиза: WEB-DL 720p
Контейнер: MKV
Видео: AVC, 1280x536, 24.000 fps, 4000 kbps avg
Аудио: AC3, 3/2 (L,C,R,l,r) + LFE ch, 48 kHz, 384.00 kbps avg
MediaInfo">

Скриншоты MediaInfo


General
Unique ID : 176299442777807736481392193710128072118 (0x84A209A050887453A8EEEA9AB53785B6)
Complete name : Статус. Свободен.mkv
Format : Matroska
Format version : Version 2
File size : 3.08 GiB
Duration : 1h 38mn
Overall bit rate : 4 466 Kbps
Movie name : Status: Svoboden (2016) - Release for HDCLUB
Encoded date : UTC 2016-02-21 21:54:41
Writing application : mkvmerge v3.4.0 ('Rapunzel') built on May 15 2010 09:38:20
Writing library : libebml v0.8.0 + libmatroska v0.9.0
Video
ID : 1
Format : AVC
Format/Info : Advanced Video Codec
Format profile : Main@L3.1
Format settings, CABAC : No
Format settings, ReFrames : 2 frames
Codec ID : V_MPEG4/ISO/AVC
Duration : 1h 38mn
Bit rate : 3 993 Kbps
Width : 1 280 pixels
Height : 536 pixels
Display aspect ratio : 2.40:1
Frame rate mode : Constant
Frame rate : 24.000 fps
Color space : YUV
Chroma subsampling : 4:2:0
Bit depth : 8 bits
Scan type : Progressive
Bits/(Pixel*Frame) : 0.243
Stream size : 2.76 GiB (89%)
Title : Status: Svoboden (2016) - Release for HDCLUB
Language : Russian
Default : Yes
Forced : No
Color range : Limited
Color primaries : BT.709
Transfer characteristics : BT.709
Matrix coefficients : BT.709
Audio
ID : 2
Format : AC-3
Format/Info : Audio Coding 3
Mode extension : CM (complete main)
Format settings, Endianness : Big
Codec ID : A_AC3
Duration : 1h 38mn
Bit rate mode : Constant
Bit rate : 384 Kbps
Channel(s) : 6 channels
Channel positions : Front: L C R, Side: L R, LFE
Sampling rate : 48.0 KHz
Frame rate : 31.250 fps (1536 spf)
Compression mode : Lossy
Stream size : 271 MiB (9%)
Title : AC3 5.1 @ 384 kbps
Language : Russian
Default : Yes
Forced : No
Menu
00:00:00.000 : en:1
00:07:17.458 : en:2
00:12:47.666 : en:3
00:19:18.749 : en:4
00:25:54.999 : en:5
00:30:58.832 : en:6
00:37:33.373 : en:7
00:42:50.914 : en:8
00:48:59.664 : en:9
00:54:10.747 : en:10
01:00:01.663 : en:11
01:05:25.413 : en:12
01:10:46.371 : en:13
01:16:50.912 : en:14
01:23:10.828 : en:15
01:28:25.911 : en:16
[Профиль] [ЛС]
Показать сообщения:    

Текущее время: Сегодня 11:52

Часовой пояс: GMT



Вы не можете начинать темы
Вы не можете отвечать на сообщения
Вы не можете редактировать свои сообщения
Вы не можете удалять свои сообщения
Вы не можете голосовать в опросах
Вы не можете прикреплять файлы к сообщениям
Вы не можете скачивать файлы