Статика в 3Д / Static 3D (Тодд Левин / Todd Levin) [2012, Триллер, Ужасы, Драма, BDrip-AVC] VO (den904), Half OverUnder / Вертикальная анаморфная стереопара

 
Автор Сообщение

TorrentFilm ®

Пол:

Стаж: 2 года

Сообщений: 7741



Награды: Нет

Торрент-статистика

Создавать темы 04-Янв-2016 00:01

[Цитировать]

Статика
Static

«Если ты слышишь, что они идут - ты уже мёртв»

Год выпуска: 2012
Страна: США (New Artists Alliance, Ozone Entertainment, Caliber Media Co, Divide Pictures)
Жанр: Триллер, Ужасы, Драма
Продолжительность: 01:23:07
Перевод: Одноголосый закадровый (den904 по переводу МЕГАПЫХАРЬ)
Режиссер: Тодд Левин / Todd Levin-Роли исполняли:
.............
Майло Вентимилья (Jonathan Dade), Сара Шахи (Addie Dade), Сара Пэкстон (Rachel), Оз Калван (Thomas Dade), Уильям Мапотер (Greg Wagner), Доминик Богарт (Head Intruder), Люк Барнетт (Intruder #1), Бретт Манн (Intruder #2), Джон Хэрман (Intruder #3), Ахмад Русс (Intruder #4)...-Описание: Молодая пара находится на грани развода после смерти ребенка. Жизнь супругов еще больше осложняется с появлением загадочной девушки, овеянной ореолом мистики.
Доп. информация:
Динамичность фильма соответствует названию.
Глубина 3Д хорошая.
В промежутке 00:00:28 ... 00:00:32 перепутаны ракурсы (см. первый скриншот). Из-за 4 секунд не было желания исправлять.
Картинка тёмная и малодинамичная, отсюда столь низкий битрейт (причём я его дал с хорошим запасом - Лог кодирования выложен ниже).-Премьера (мир): 1 ноября 2012
. .
-Качество: BDRip (by Ash61)
Контейнер: MKV
Формат 3D: Half OverUnder / Вертикальная анаморфная стереопара
Порядок ракурсов: левый ракурс первый
Видео кодек: x264
Аудио кодек: AC3-Видео: AVC / 23,976 fps / 1920х1080p / ~3.3 Mbps
Аудио:
#1 - Русский / AC3 / 48 KHz / 5.1 ch / 448 Kbps (VO - den904)
#2 - Английский / AC3 / 48 KHz / 5.1 ch / 640 Kbps (Original)
Субтитры: Отсутствуют

Лог кодирования и MediaInfo


General
Unique ID : 221776777856616804661272574695152270754 (0xA6D8A75BCAA10853BC7A2B1B8303BDA2)
Complete name : E:\Static(2012)3D-halfOU(Ash61)VO(den904).mkv
Format : Matroska
Format version : Version 2
File size : 2.58 GiB
Duration : 1h 23mn
Overall bit rate : 4 437 Kbps
Movie name : Статика / Static (2012) 3D
Encoded date : UTC 2013-11-03 06:48:30
Writing application : mkvmerge v5.8.0 ('No Sleep / Pillow') built on Sep 2 2012 15:37:04
Writing library : libebml v1.2.3 + libmatroska v1.3.0
Video
ID : 1
Format : AVC
Format/Info : Advanced Video Codec
Format profile : High@L4.1
Format settings, CABAC : Yes
Format settings, ReFrames : 4 frames
Codec ID : V_MPEG4/ISO/AVC
Duration : 1h 23mn
Bit rate : 3 261 Kbps
Width : 1 920 pixels
Height : 1 080 pixels
Display aspect ratio : 16:9
Frame rate mode : Constant
Frame rate : 23.976 fps
Color space : YUV
Chroma subsampling : 4:2:0
Bit depth : 8 bits
Scan type : Progressive
Bits/(Pixel*Frame) : 0.066
Stream size : 1.89 GiB (73%)
Title : BDRip by Ash61
Writing library : x264 core 129 r2245 bc13772
Encoding settings : cabac=1 / ref=4 / deblock=1:-3:-3 / analyse=0x3:0x113 / me=umh / subme=10 / psy=1 / psy_rd=1.00:0.15 / mixed_ref=1 / me_range=32 / chroma_me=1 / trellis=2 / 8x8dct=1 / cqm=0 / deadzone=21,11 / fast_pskip=1 / chroma_qp_offset=-3 / threads=12 / lookahead_threads=2 / sliced_threads=0 / nr=0 / decimate=1 / interlaced=0 / bluray_compat=0 / constrained_intra=0 / bframes=8 / b_pyramid=2 / b_adapt=2 / b_bias=0 / direct=3 / weightb=1 / open_gop=0 / weightp=2 / keyint=250 / keyint_min=23 / scenecut=40 / intra_refresh=0 / rc_lookahead=60 / rc=crf / mbtree=1 / crf=17.0 / qcomp=0.70 / qpmin=0 / qpmax=69 / qpstep=4 / vbv_maxrate=40000 / vbv_bufsize=30000 / crf_max=0.0 / nal_hrd=none / frame-packing=4 / ip_ratio=1.40 / aq=1:0.70
Language : English
Default : Yes
Forced : No
Audio #1
ID : 2
Format : AC-3
Format/Info : Audio Coding 3
Mode extension : CM (complete main)
Format settings, Endianness : Big
Codec ID : A_AC3
Duration : 1h 23mn
Bit rate mode : Constant
Bit rate : 448 Kbps
Channel(s) : 6 channels
Channel positions : Front: L C R, Side: L R, LFE
Sampling rate : 48.0 KHz
Bit depth : 16 bits
Compression mode : Lossy
Stream size : 266 MiB (10%)
Title : Одноголосый закадровый - den904
Language : Russian
Default : Yes
Forced : No
Audio #2
ID : 3
Format : AC-3
Format/Info : Audio Coding 3
Mode extension : CM (complete main)
Format settings, Endianness : Big
Codec ID : A_AC3
Duration : 1h 23mn
Bit rate mode : Constant
Bit rate : 640 Kbps
Channel(s) : 6 channels
Channel positions : Front: L C R, Side: L R, LFE
Sampling rate : 48.0 KHz
Bit depth : 16 bits
Compression mode : Lossy
Stream size : 381 MiB (14%)
Title : Original
Language : English
Default : No
Forced : No

Для оценки 3Д - Анимированные скрины












[Профиль] [ЛС]
Показать сообщения:    

Текущее время: Сегодня 04:23

Часовой пояс: GMT



Вы не можете начинать темы
Вы не можете отвечать на сообщения
Вы не можете редактировать свои сообщения
Вы не можете удалять свои сообщения
Вы не можете голосовать в опросах
Вы не можете прикреплять файлы к сообщениям
Вы не можете скачивать файлы