Старый 37 / Спустя 37 лет / Old 37 (Алан Смити / Alan Smithee) [2015, США, ужасы, WEB-DLRip] VO

 
Автор Сообщение

TorrentFilm ®

Пол:

Стаж: 2 года

Сообщений: 7741



Награды: Нет

Торрент-статистика

Создавать темы 03-Ноя-2015 00:08

[Цитировать]

Старый 37 / Old 37Выпущено: США, Big Picture Media
Год выпуска: 2015
Жанр: ужасы
Продолжительность: 01:20:24
Перевод: Одноголосый закадровый Хихидок, по переводу anton1
Субтитры: русские вшитые (на надписи)-Режиссер: Алан Смити / Alan Smithee-В ролях: Кэйн Ходдер, Билл Моусли, Джейк Робинсон, Саша Нопф,
Оливия Александр, Брэнди Сайрус, Маргарет Кин Уильямс, Роберт Бог, Кэйтлин Харрис, Анджела Пьетропинто
--Двое братьев разъезжают на карете скорой помощи перехватывая звонки в службу 911.
Зачем они это делают? Чтобы отомстить подросткам, которые вели себя очень плохо и стали причиной смерти матери братьев…
-
-
Сэмпл: http://sendfile.su/1170026
Качество видео: WEB-DLRip
Исходник: WEB-DLRip 720p
Формат видео: AVI
Видео: XviD (1.2.2) 1100kbps 688x288 23.976fps
Аудио: MP3 128kbps 2ch 16bit 44100khz

MediaInfo

MediaInfoLib - v0.7.62
General
Complete name : F:\Мои раздачи 2\Старый 37 (Old 37). 2015г. WEB-DLRip. - kontarik81.avi.avi
Format : AVI
Format/Info : Audio Video Interleave
File size : 712 MiB
Duration : 1h 20mn
Overall bit rate : 1 239 Kbps
Writing application : VirtualDubMod 1.5.10.3 | www.virtualdub-fr.org || (build 2550/release)
Writing library : VirtualDubMod build 2550/release
Video
ID : 0
Format : MPEG-4 Visual
Format profile : Advanced Simple@L5
Format settings, BVOP : 1
Format settings, QPel : No
Format settings, GMC : No warppoints
Format settings, Matrix : Default (H.263)
Codec ID : XVID
Codec ID/Hint : XviD
Duration : 1h 20mn
Bit rate : 1 101 Kbps
Width : 688 pixels
Height : 288 pixels
Display aspect ratio : 2.40:1
Frame rate : 23.976 fps
Color space : YUV
Chroma subsampling : 4:2:0
Bit depth : 8 bits
Scan type : Progressive
Compression mode : Lossy
Bits/(Pixel*Frame) : 0.232
Stream size : 633 MiB (89%)
Writing library : XviD 1.2.1 (UTC 2008-12-04)
Audio
ID : 1
Format : MPEG Audio
Format version : Version 1
Format profile : Layer 3
Mode : Joint stereo
Mode extension : MS Stereo
Codec ID : 55
Codec ID/Hint : MP3
Duration : 1h 20mn
Bit rate mode : Constant
Bit rate : 128 Kbps
Channel(s) : 2 channels
Sampling rate : 44.1 KHz
Compression mode : Lossy
Stream size : 73.6 MiB (10%)
Alignment : Split accross interleaves
Interleave, duration : 42 ms (1.00 video frame)
Interleave, preload duration : 500 ms
Writing library : LAME3.99r
Encoding settings : -m j -V 4 -q 2 -lowpass 17 -b 128

Скриншот c названием фильма

Скриншоты

[Профиль] [ЛС]
Показать сообщения:    

Текущее время: Сегодня 14:56

Часовой пояс: GMT



Вы не можете начинать темы
Вы не можете отвечать на сообщения
Вы не можете редактировать свои сообщения
Вы не можете удалять свои сообщения
Вы не можете голосовать в опросах
Вы не можете прикреплять файлы к сообщениям
Вы не можете скачивать файлы