Старый Новый год / «Старый» Новый год / New Year's Eve (Гэрри Маршалл / Garry Marshall) [2011 г, США, мелодрама, комедия, BDRip 720p] Dub + Original (eng) + Subs (rus, ukr, eng)

 
Автор Сообщение

sergej644 ®

Пол:

Стаж: 4 года 11 месяцев

Сообщений: 6043

Откуда: Soviet Union



Награды: Нет

Торрент-статистика

Создавать темы 30-Дек-2014 08:51

[Цитировать]

Старый Новый год / «Старый» Новый год / New Year's Eve Страна: США
Жанр: мелодрама, комедия
Год выпуска: 2011
Продолжительность: 01:57:54-Перевод: Профессиональный (дублированный) Blu-ray
Cубтитры: Russian (Full, Forced), Ukrainian (Full, Forced), English
Оригинальная аудиодорожка: English-Режиссер: Гэрри Маршалл / Garry Marshall
В ролях: Холли Берри, Джессика Бил, Джон Бон Джови, Эбигейл Бреслин, Лудакрис, Роберт Де Ниро, Джош Дюамель, Зак Эфрон, Гектор Элизондо, Кэтрин Хайгл, Эштон Катчер, Сет Майерс, Лиа Мишель, Сара Джессика Паркер, Мишель Пфайффер, Тиль Швайгер, Хилари Суэнк, Алисса Милано, Карла Гуджино, Джеймс Белуши-Описание: Герои фильма - жители города, который никогда не спит. Нью-Йорк накануне Нового года переплетет жизни нескольких героев: умирающего в больнице пожилого человека, секретаршу, решившую осуществить данные себе обещания, продюсера знаменитого новогоднего шоу на Таймс Сквер, человека, который вообще ненавидит этот праздник.- -Качество: BDRip 720p
Контейнер: MKV
Видео: H.264, 1280x720, 23,976 fps, 5200 kbps
Аудио #1: Russian: AC3 5.1, 48 kHz, 640 kbps avg |Дубляж, Blu-ray|
Аудио #2: Ukrainian: AC3 5.1, 48 kHz, 384 kbps avg |Дубляж, R5|
Аудио #3: English: DTS 5.1, 48 kHz, 1536 kbps avg
Аудио #4: English: AC3 2.0, 48 kHz, 192 kbps avg |Commentary|
Формат субтитров: softsub (SRT)

MediaInfo

General
Unique ID : 239040649416283838759338908107765800684 (0xB3D58DF1549333FB8CCC5D83231D5EEC)
Complete name : E:\New.Year's.Eve.2011.BDRip.720p.mkv
Format : Matroska
File size : 6.53 GiB
Duration : 1h 57mn
Overall bit rate : 7 928 Kbps
Movie name : «Старый» Новый год
Encoded date : UTC 2012-06-13 19:06:30
Writing application : mkvmerge v5.1.0 ('And so it goes') built on Nov 28 2011 23:58:28
Writing library : libebml v1.2.3 + libmatroska v1.3.0
Video
ID : 1
Format : AVC
Format/Info : Advanced Video Codec
Format profile : High@L4.1
Format settings, CABAC : Yes
Format settings, ReFrames : 9 frames
Codec ID : V_MPEG4/ISO/AVC
Duration : 1h 57mn
Bit rate : 5 200 Kbps
Width : 1 280 pixels
Height : 720 pixels
Display aspect ratio : 16:9
Frame rate : 23.976 fps
Color space : YUV
Chroma subsampling : 4:2:0
Bit depth : 8 bits
Scan type : Progressive
Bits/(Pixel*Frame) : 0.235
Stream size : 4.15 GiB (64%)
Title : «Старый» Новый год
Writing library : x264 core 120 r2164 da19765
Encoding settings : cabac=1 / ref=9 / deblock=1:-3:-3 / analyse=0x3:0x133 / me=tesa / subme=10 / psy=1 / psy_rd=1.00:0.00 / mixed_ref=1 / me_range=48 / chroma_me=1 / trellis=2 / 8x8dct=1 / cqm=0 / deadzone=21,11 / fast_pskip=0 / chroma_qp_offset=-2 / threads=15 / sliced_threads=0 / nr=0 / decimate=1 / interlaced=0 / bluray_compat=0 / constrained_intra=0 / bframes=8 / b_pyramid=2 / b_adapt=2 / b_bias=0 / direct=3 / weightb=1 / open_gop=0 / weightp=2 / keyint=250 / keyint_min=23 / scenecut=40 / intra_refresh=0 / rc_lookahead=60 / rc=2pass / mbtree=1 / bitrate=5200 / ratetol=1.0 / qcomp=0.70 / qpmin=0 / qpmax=69 / qpstep=4 / cplxblur=20.0 / qblur=0.5 / vbv_maxrate=40000 / vbv_bufsize=30000 / nal_hrd=none / ip_ratio=1.40 / aq=1:0.80
Language : English
Audio #1
ID : 2
Format : AC-3
Format/Info : Audio Coding 3
Mode extension : CM (complete main)
Codec ID : A_AC3
Duration : 1h 57mn
Bit rate mode : Constant
Bit rate : 640 Kbps
Channel(s) : 6 channels
Channel positions : Front: L C R, Side: L R, LFE
Sampling rate : 48.0 KHz
Bit depth : 16 bits
Compression mode : Lossy
Stream size : 540 MiB (8%)
Title : AC3 - Дубляж (Blu-Ray)
Language : Russian
Audio #2
ID : 3
Format : AC-3
Format/Info : Audio Coding 3
Mode extension : CM (complete main)
Codec ID : A_AC3
Duration : 1h 57mn
Bit rate mode : Constant
Bit rate : 384 Kbps
Channel(s) : 6 channels
Channel positions : Front: L C R, Side: L R, LFE
Sampling rate : 48.0 KHz
Bit depth : 16 bits
Compression mode : Lossy
Stream size : 324 MiB (5%)
Title : AC3 - Дубляж (R5)
Language : Ukrainian
Audio #3
ID : 4
Format : DTS
Format/Info : Digital Theater Systems
Codec ID : A_DTS
Duration : 1h 57mn
Bit rate mode : Constant
Bit rate : 1 510 Kbps
Channel(s) : 6 channels
Channel positions : Front: L C R, Side: L R, LFE
Sampling rate : 48.0 KHz
Bit depth : 24 bits
Compression mode : Lossy
Stream size : 1.24 GiB (19%)
Title : DTS
Language : English
Audio #4
ID : 5
Format : AC-3
Format/Info : Audio Coding 3
Format profile : Dolby Digital
Mode extension : CM (complete main)
Codec ID : A_AC3
Duration : 1h 57mn
Bit rate mode : Constant
Bit rate : 192 Kbps
Channel(s) : 2 channels
Channel positions : Front: L R
Sampling rate : 48.0 KHz
Bit depth : 16 bits
Compression mode : Lossy
Stream size : 162 MiB (2%)
Title : AC3 - Commentary
Language : English
Text #1
ID : 6
Format : UTF-8
Codec ID : S_TEXT/UTF8
Codec ID/Info : UTF-8 Plain Text
Title : Forced
Language : Russian
Text #2
ID : 7
Format : UTF-8
Codec ID : S_TEXT/UTF8
Codec ID/Info : UTF-8 Plain Text
Title : Full
Language : Russian
Text #3
ID : 8
Format : UTF-8
Codec ID : S_TEXT/UTF8
Codec ID/Info : UTF-8 Plain Text
Title : Forced
Language : Ukrainian
Text #4
ID : 9
Format : UTF-8
Codec ID : S_TEXT/UTF8
Codec ID/Info : UTF-8 Plain Text
Title : Full
Language : Ukrainian
Text #5
ID : 10
Format : UTF-8
Codec ID : S_TEXT/UTF8
Codec ID/Info : UTF-8 Plain Text
Title : SDH
Language : English
Menu
00:00:00.000 : en:00:00:00.000
00:09:24.147 : en:00:09:24.147
00:20:55.546 : en:00:20:55.546
00:29:31.979 : en:00:29:31.979
00:39:52.557 : en:00:39:52.557
00:49:09.947 : en:00:49:09.947
00:59:05.959 : en:00:59:05.959
01:09:57.235 : en:01:09:57.235
01:19:26.512 : en:01:19:26.512
01:29:40.625 : en:01:29:40.625
01:38:59.433 : en:01:38:59.433
01:48:19.410 : en:01:48:19.410

Скриншоты

[Профиль] [ЛС]
Показать сообщения:    

Текущее время: Сегодня 08:11

Часовой пояс: GMT



Вы не можете начинать темы
Вы не можете отвечать на сообщения
Вы не можете редактировать свои сообщения
Вы не можете удалять свои сообщения
Вы не можете голосовать в опросах
Вы не можете прикреплять файлы к сообщениям
Вы не можете скачивать файлы