Старый Новый год (1980) DVDRip | Реставрация

 
Автор Сообщение

BOSS ®

Пол:

Стаж: 2 года 1 месяц

Сообщений: 3732

Откуда: ODESSA



Награды: 20 (Подробнее)

За внесенный вклад в развитие сайта (Количество: 1) Mega Seeder 3 (Количество: 1) Mega Releaser 2 (Количество: 1)
Торрент-статистика

Создавать темы 09-Янв-2016 17:03

[Цитировать]

Информация о фильме
Название: Старый Новый год
Год выхода: 1980
Жанр: Комедия, драма
Режиссёр: Наум Ардашников, Олег Ефремов
В ролях: Вячеслав Невинный, Евгений Евстигнеев, Александр Калягин, Борис Щербаков, Пётр Щербаков, Ирина Мирошниченко, Анастасия Немоляева, Валентин Карманов, Виктор Петров, Георгий Бурков, Валерия Дементьева, Татьяна Забродина, Ксения Минина, Владимир Трошин, Лилия Журкина (Евстигнеева), Марина Добровольская, Вячеслав Степанов, Евгения Ханаева, Наталья Назарова
О фильме: В недавно заселенном доме идет новогодняя гульба. Две соседствующие семьи имеют, при всех различиях одно сходство: в обеих есть недовольный жизнью муж. Вскоре оба неудачника, хлопнув дверьми, покидают свои новые квартиры – чтобы вскоре найти успокоение в тесной мужской компании...
Доп. информация: Исходник - DVD9 | Реставрация | Крупный План

Страна: СССР
Студия: Мосфильм
Продолжительность: 02:12:54
Перевод: Не требуется (оригинальный)
Файл
Формат: avi
Качество: DVDRip (DVD9)
Видео: XviD, 640х480, 25fps, 1424kbps
Аудио: MPEG Layer 3, 2ch, 48000Hz, 128kbps

MediaInfo

General
Complete name : Staryi.Novyi.God.1980.O.DVDRip.1400.CurHaJI.avi
Format : AVI
Format/Info : Audio Video Interleave
File size : 1.45 GiB
Duration : 2h 12mn
Overall bit rate : 1 561 Kbps
Movie name : Staryi.Novyi.God.1980.O.DVDRip.1400.CurHaJI
Writing application : VirtualDubMod 1.5.10.3 | www.virtualdub-fr.org || (build 2550/release)
Writing library : VirtualDub build 35491/release
Video
ID : 0
Format : MPEG-4 Visual
Format profile : Advanced Simple@L5
Format settings, BVOP : 2
Format settings, QPel : No
Format settings, GMC : No warppoints
Format settings, Matrix : Custom
Codec ID : XVID
Codec ID/Hint : XviD
Duration : 2h 12mn
Bit rate : 1 424 Kbps
Width : 640 pixels
Height : 480 pixels
Display aspect ratio : 4:3
Frame rate : 25.000 fps
Color space : YUV
Chroma subsampling : 4:2:0
Bit depth : 8 bits
Scan type : Progressive
Compression mode : Lossy
Bits/(Pixel*Frame) : 0.185
Stream size : 1.32 GiB (91%)
Writing library : XviD 64
Audio
ID : 1
Format : MPEG Audio
Format version : Version 1
Format profile : Layer 3
Codec ID : 55
Codec ID/Hint : MP3
Duration : 2h 12mn
Bit rate mode : Constant
Bit rate : 128 Kbps
Channel(s) : 2 channels
Sampling rate : 48.0 KHz
Compression mode : Lossy
Stream size : 122 MiB (8%)
Alignment : Aligned on interleaves
Interleave, duration : 40 ms (1.00 video frame)
Interleave, preload duration : 504 ms
Writing library : L3.99r
Encoding settings : -m s -V 4 -q 2 -lowpass 17 -b 128

Скриншоты

[Профиль] [ЛС]
Показать сообщения:    

Текущее время: Сегодня 14:26

Часовой пояс: GMT



Вы не можете начинать темы
Вы не можете отвечать на сообщения
Вы не можете редактировать свои сообщения
Вы не можете удалять свои сообщения
Вы не можете голосовать в опросах
Вы не можете прикреплять файлы к сообщениям
Вы не можете скачивать файлы