Старый Новый год (Олег Ефремов, Наум Ардашников) [1980 г., Комедия, DVDRip]

 
Автор Сообщение

sergej644 ®

Пол:

Стаж: 4 года 11 месяцев

Сообщений: 6040

Откуда: Soviet Union



Награды: Нет

Торрент-статистика

Создавать темы 30-Дек-2014 08:53

[Цитировать]

Старый Новый год (2 серии)- Жанр: комедия
Год выпуска: 1980
Продолжительность: 01:09:28 + 01:03:25-Режиссёр: Олег Ефремов, Наум Ардашников-В ролях:
*Вячеслав Невинный — Пётр Себейкин
*Александр Калягин — Пётр Полуорлов
*Ксения Минина — Клава Себейкина
*Ирина Мирошниченко — Клава Полуорлова
*Пётр Щербаков — Гоша
*Анастасия Немоляева — Лиза Себейкина
*Георгий Бурков — тесть Себейкина
*Валерия Дементьева — тёща Себейкина
*Лилия Евстигнеева — Инна
*Евгений Евстигнеев — Иван Адамыч
*Борис Щербаков — Студент-Описание: В недавно заселенной многоэтажке, в соседних квартирах, две большие семьи, пролетария Себейкина (Невинный) и интеллигента Полуорлова (Калягин), отмечают народный праздник по-советски — с жаркими дебатами на кухне и бурным потоком горячительных напитков. Рост недопонимания между супругами в обеих ячейках общества приводит к тому, что мужская часть населения уходит "продолжать" в баню.-Рейтинг:
imdb.com - 7.0/10 (148)
kinopoisk.ru - 7.883 (1 442)--Качество видео: DVDRip // DVD9 //
Формат видео: AVI // Sample //
Видео: 576x432 (1.33:1), 25 fps, XviD build 65 ~1428 kbps avg, 0.23 bit/pixel
Аудио: 48 kHz, MPEG Layer 3, 2 ch, ~128.00 kbps avg
Параметры видео и аудио в двух сериях одинаковые.

MediaInfo

Общее
Полное имя : H:\Stariy.Noviy.God.1980.DVDRip.[All.Films]\Stariy.Noviy.God.1980.DVDRip.[All.Films].1.avi
Формат : AVI
Формат/Информация : Audio Video Interleave
Размер файла : 778 Мбайт
Продолжительность : 1 ч. 9 м.
Общий поток : 1566 Кбит/сек
Название фильма : Stariy.Noviy.God.1980.DVDRip.[All.Films].1
Режиссёр : VremeniNet
Программа кодирования : VirtualDubModRus 1.5.10.2 (build 2542/release)
Правообладатель : [torrentfilm.net]
Видео
Идентификатор : 0
Формат : MPEG-4 Visual
Профиль формата : Advanced Simple@L5
Параметр BVOP формата : 1
Параметр QPel формата : Нет
Параметр GMC формата : Без точки перехода
Параметр матрицы формата : Выборочная
Идентификатор кодека : XVID
Идентификатор кодека/Подсказка : XviD
Продолжительность : 1 ч. 9 м.
Битрейт : 1428 Кбит/сек
Ширина : 576 пикселей
Высота : 432 пикселя
Соотношение сторон : 4:3
Частота кадров : 25,000 кадров/сек
Цветовое пространство : YUV
Субдискретизация насыщенности : 4:2:0
Битовая глубина : 8 бит
Тип развёртки : Прогрессивная
Метод сжатия : С потерями
Бит/(Пиксели*Кадры) : 0.230
Размер потока : 710 Мбайт (91%)
Библиотека кодирования : XviD 65
Аудио
Идентификатор : 1
Формат : MPEG Audio
Версия формата : Version 1
Профиль формата : Layer 3
Идентификатор кодека : 55
Идентификатор кодека/Подсказка : MP3
Продолжительность : 1 ч. 9 м.
Вид битрейта : Постоянный
Битрейт : 128 Кбит/сек
Каналы : 2 канала
Частота : 48,0 КГц
Метод сжатия : С потерями
Задержка видео : 600 мс.
Размер потока : 63,6 Мбайт (8%)
Выравнивание : Разделение по промежуткам
Продолжительность промежутка : 40 мс. (1,00 видеокадр)
Время предзагрузки промежутка : 504 мс.
Общее
Полное имя : H:\Stariy.Noviy.God.1980.DVDRip.[All.Films]\Stariy.Noviy.God.1980.DVDRip.[All.Films].2.avi
Формат : AVI
Формат/Информация : Audio Video Interleave
Размер файла : 710 Мбайт
Продолжительность : 1 ч. 3 м.
Общий поток : 1566 Кбит/сек
Название фильма : Stariy.Noviy.God.1980.DVDRip.[All.Films].2
Режиссёр : VremeniNet
Программа кодирования : VirtualDubModRus 1.5.10.2 (build 2542/release)
Правообладатель : [torrentfilm.net]
Видео
Идентификатор : 0
Формат : MPEG-4 Visual
Профиль формата : Advanced Simple@L5
Параметр BVOP формата : 1
Параметр QPel формата : Нет
Параметр GMC формата : Без точки перехода
Параметр матрицы формата : Выборочная
Идентификатор кодека : XVID
Идентификатор кодека/Подсказка : XviD
Продолжительность : 1 ч. 3 м.
Битрейт : 1428 Кбит/сек
Ширина : 576 пикселей
Высота : 432 пикселя
Соотношение сторон : 4:3
Частота кадров : 25,000 кадров/сек
Цветовое пространство : YUV
Субдискретизация насыщенности : 4:2:0
Битовая глубина : 8 бит
Тип развёртки : Прогрессивная
Метод сжатия : С потерями
Бит/(Пиксели*Кадры) : 0.230
Размер потока : 648 Мбайт (91%)
Библиотека кодирования : XviD 65
Аудио
Идентификатор : 1
Формат : MPEG Audio
Версия формата : Version 1
Профиль формата : Layer 3
Идентификатор кодека : 55
Идентификатор кодека/Подсказка : MP3
Продолжительность : 1 ч. 3 м.
Вид битрейта : Постоянный
Битрейт : 128 Кбит/сек
Каналы : 2 канала
Частота : 48,0 КГц
Метод сжатия : С потерями
Задержка видео : 360 мс.
Размер потока : 58,1 Мбайт (8%)
Выравнивание : Соединение по промежуткам
Продолжительность промежутка : 40 мс. (1,00 видеокадр)
Время предзагрузки промежутка : 504 мс.

Скриншоты


[Профиль] [ЛС]

Создавать темы 06-Авг-2015 22:00 (спустя 7 месяцев 7 дней)

Топик был перенесен из форума Кино СССР в форум Кино СССР
sergej644
 
Показать сообщения:    

Текущее время: Сегодня 04:48

Часовой пояс: GMT



Вы не можете начинать темы
Вы не можете отвечать на сообщения
Вы не можете редактировать свои сообщения
Вы не можете удалять свои сообщения
Вы не можете голосовать в опросах
Вы не можете прикреплять файлы к сообщениям
Вы не можете скачивать файлы