Старые мошенники / Старые разбойники / Vieilles canailles (Арно Селиньяк / Arnaud Sélignac) [2010, Франция, комедия, SATRip] MVO (Комедия ТВ)

 
Автор Сообщение

TorrentFilm ®

Пол:

Стаж: 2 года

Сообщений: 7741



Награды: Нет

Торрент-статистика

Создавать темы 02-Апр-2016 00:09

[Цитировать]

Старые мошенники / Старые разбойники / Vieilles canailles
Страна: Франция
Жанр: комедия
Год выпуска: 2010
Продолжительность: 01:21:34
Перевод: Профессиональный (многоголосый закадровый) Комедия ТВ
Cубтитры: нет
Оригинальная аудиодорожка: нет
Режиссер: Арно Селиньяк / Arnaud Sélignac
В ролях: Клод Брассёр
Франсуа Берлеан
Патрик Шене
Николь Кальфан
Сирил Клер
Аладин Райбел
Дэльфин Роллин
Закария Гуран
Жан-Марк Кудер
Ив Коллиньон
Описание: Не видевшись двадцать лет, трое друзей, выросших вместе в приюте, воссоединяются на Ривьере, чтобы отомстить человеку, ответственному за смерть их четвертого друга, Серхио, и придумывают коварный план, полностью построенный на лжи.
Сэмпл: http://multi-up.com/1095611
Качество видео: SATRip
Формат видео: AVI
Видео: MPEG4, XviD, 720x400 (16:9), 25.000 fps, 2 201 Kbps (0.306 bit/pixel)
Аудио: AC-3, 48.0 KHz, 2 ch, 192 Kbps, CBR

MediaInfo

Общее
Полное имя : M:\Старые разбойники.avi
Формат : AVI
Формат/Информация : Audio Video Interleave
Размер файла : 1,37 Гбайт
Продолжительность : 1 ч. 21 м.
Общий поток : 2403 Кбит/сек
Название фильма : Старые мошенники / Старые разбойники / Vieilles canailles (2010)
Программа кодирования : VirtualDubMod 1.5.10.2 (build 2540/release)
Библиотека кодирования : VirtualDubMod build 2540/release
Авторское право : miha2154
Видео
Идентификатор : 0
Формат : MPEG-4 Visual
Профиль формата : Advanced Simple@L5
Параметр BVOP формата : 1
Параметр QPel формата : Нет
Параметр GMC формата : Без точки перехода
Параметр матрицы формата : Выборочная
Идентификатор кодека : XVID
Идентификатор кодека/Подсказка : XviD
Продолжительность : 1 ч. 21 м.
Битрейт : 2201 Кбит/сек
Ширина : 720 пикселей
Высота : 400 пикселей
Соотношение сторон : 16:9
Частота кадров : 25,000 кадров/сек
Цветовое пространство : YUV
Субдискретизация насыщенности : 4:2:0
Битовая глубина : 8 бит
Тип развёртки : Прогрессивная
Метод сжатия : С потерями
Бит/(Пиксели*Кадры) : 0.306
Размер потока : 1,25 Гбайт (92%)
Библиотека кодирования : XviD 65
Аудио
Идентификатор : 1
Формат : AC-3
Формат/Информация : Audio Coding 3
Расширение режима : CM (complete main)
Параметр Endianness формата : Big
Идентификатор кодека : 2000
Продолжительность : 1 ч. 21 м.
Вид битрейта : Постоянный
Битрейт : 192 Кбит/сек
Каналы : 2 канала
Расположение каналов : Front: L R
Частота : 48,0 КГц
Частота кадров : 31,250 кадров/сек (1536 spf)
Метод сжатия : С потерями
Размер потока : 112 Мбайт (8%)
Выравнивание : Разделение по промежуткам
Продолжительность промежутка : 40 мс. (1,00 видеокадр)
Время предзагрузки промежутка : 500 мс.
Заголовок : Профессиональный (многоголосый закадровый) Комедия ТВ

Скриншоты


[Профиль] [ЛС]

Создавать темы 12-Июн-2016 07:53 (спустя 2 месяца 10 дней)

Топик был перенесен из форума Фильмы 2011 года в форум Фильмы 2010 года
Russian Mafia
 
Показать сообщения:    

Текущее время: Сегодня 00:20

Часовой пояс: GMT



Вы не можете начинать темы
Вы не можете отвечать на сообщения
Вы не можете редактировать свои сообщения
Вы не можете удалять свои сообщения
Вы не можете голосовать в опросах
Вы не можете прикреплять файлы к сообщениям
Вы не можете скачивать файлы