Старшеклассники [02х01-31, 37-38 из 167] (2007-2008) SATRip от ivandubskoj

 
Автор Сообщение

Белочка ®

Пол:

Стаж: 5 лет 1 месяц

Сообщений: 2089



Награды: 1 (Подробнее)

Girls (Количество: 1)
Торрент-статистика

Создавать темы 24-Ноя-2014 11:42

[Цитировать]

Информация о фильме
Название: Старшеклассники 2
Год выхода: 2007-2008
Жанр: Молодёжный сериал, драма, мелодрама, комедия, семейный
Режиссёр: Максим Демченко, Ядвига Закржевская
В ролях: Вадим Козлов, Наталья Бахматова, Юлия Ерусова, Юлия Кудояр, Андрей Пынзару, Валентина Егоренкова, Алексей Симонов, Светлана Письмиченко, Дмитрий Кочкин, Александра Бондаренко, Анастасия Грибова, Юлиана Волошина, Станислав Толстов, Павел Татаренко, Григорий Татаренко
О фильме:
Реалити-шоу с новыми героями, нынешними одиннадцатиклассниками, расскажет вам про жизнь молодых ребят, про их удачи и неудачи, про дружбу и вражду, про любовь и ненависть. Новенькая – Катя Воронина, она же «Ворона», действительно белая ворона в новом коллективе. Ее не интересует школьная жизнь, ей наплевать на устоявшиеся правила. Модник Мигель, который очень переживает, когда его называют простым именем – Миша – обожает красивых девушек и дорогие шмотки. Кирилл и Даша расстались летом, когда у Даши умерла мама. Ей нужна была поддержка, а Кирилл не понял… Как сложно разобраться в этой жизни, когда ты начинаешь взрослеть! Хорошо, что есть такие люди, как Борис Максимович, директор школы, и Зоя Захаровна, которой просто навязали ребят – она будет классным руководителем. Они смогут расставить все на свои места – дисциплина и порядок гарантированы. Правда, если Борман не окажется папой новенькой, всякое бывает… Чиж говорит, что сможет заработать кучу бабок, если покажет свой проект телевизионщикам в конце учебного года. Конечно, что может быть интересней реальной жизни в школе? Наверное, Чиж прав.

Страна: Россия
Студия: ОАО ТРК "Петербург"
Продолжительность: 167 x ~ 00:26:00
Перевод: Не требуется
Файл
Кодек: XviD
Качество: SATRip, TVRip
Видео: XviD, 688x416 (1.654), ~ 1700 Кбит/с, 25 кадр/с
Звук: Русский, MP3, 48000 Гц, 128 Кбит/с, 2 канала (Стерео)
Субтитры: Нет

MediaInfo

General
Complete name : Starsheklassniki.Sezon.2.2007-2008.SATRip.01-Новенькая.avi
Format : AVI
Format/Info : Audio Video Interleave
File size : 350 MiB
Duration : 26mn 12s
Overall bit rate : 1 868 Kbps
Writing application : VirtualDubMod 1.5.10.3 | www.virtualdub-fr.org || (build 2550/release)
Writing library : VirtualDubMod build 2550/release
Video
ID : 0
Format : MPEG-4 Visual
Format profile : Advanced Simple@L5
Format settings, BVOP : 1
Format settings, QPel : No
Format settings, GMC : No warppoints
Format settings, Matrix : Default (MPEG)
Codec ID : XVID
Codec ID/Hint : XviD
Duration : 26mn 12s
Bit rate : 1 730 Kbps
Width : 688 pixels
Height : 416 pixels
Display aspect ratio : 1.654
Frame rate : 25.000 fps
Color space : YUV
Chroma subsampling : 4:2:0
Bit depth : 8 bits
Scan type : Progressive
Compression mode : Lossy
Bits/(Pixel*Frame) : 0.242
Stream size : 324 MiB (93%)
Writing library : XviD 73
Audio
ID : 1
Format : MPEG Audio
Format version : Version 1
Format profile : Layer 3
Codec ID : 55
Codec ID/Hint : MP3
Duration : 26mn 12s
Bit rate mode : Constant
Bit rate : 128 Kbps
Channel(s) : 2 channels
Sampling rate : 48.0 KHz
Compression mode : Lossy
Stream size : 24.0 MiB (7%)
Alignment : Aligned on interleaves
Interleave, duration : 40 ms (1.00 video frame)
Interleave, preload duration : 504 ms
Writing library : LAME3.99r
Encoding settings : -m s -V 4 -q 0 -lowpass 17 -b 128

Скриншоты



Автор рипа - ivandubskoj
[Профиль] [ЛС]
Кто просматривает тему:

Форум Тема Автор Размер
R.G.TorrentFilm Video Белый король, красная королева (Сергей Бодров (старший)) [1993 г., Мелодрама, TVRip] Один 777 700 MB
Фильмы (HD DVD, Blu-ray и BDRemux) Монгол / Mongol: The Rise of Genghis Khan (Сергей Бодров старший / Sergei Bodrov) [2007, Германия, Россия, Казахстан, Монголия, драма, военный, биография, исторический, BDRemux 1080p] [Режиссёрск... painkiller 21.43 GB
Отечественные cериалы Старшая дочь [01-12 из 12] (2015) WEB-DL 720p от ExKinoRay достали все 8.74 GB
Отечественные cериалы Старшая дочь [01-12 из 12] (Гузэль Киреева) [2015, Мелодрама] SATRip BOSS 8.29 GB
Отечественные cериалы Старшая жена [01-02 из 02] (2016) HDTVRip достали все 2.73 GB
Отечественные cериалы Старшая жена [01-02 из 02] (2016) HDTVRip 720p достали все 7.39 GB
Отечественные cериалы Старшеклассники [02х01-16 из 167] (2007-2008) SATRip от ivandubskoj Белочка 5.8 GB
Отечественные cериалы Старшеклассники [02х01-17 из 167] (2007-2008) SATRip от ivandubskoj Белочка 6.14 GB
Показать сообщения:    

Текущее время: Сегодня 12:29

Часовой пояс: GMT



Вы не можете начинать темы
Вы не можете отвечать на сообщения
Вы не можете редактировать свои сообщения
Вы не можете удалять свои сообщения
Вы не можете голосовать в опросах
Вы не можете прикреплять файлы к сообщениям
Вы не можете скачивать файлы