Старики-разбойники (Эльдар Рязанов)[1961, комедия, DVDRip]

 
Автор Сообщение

sergej644 ®

Пол:

Стаж: 4 года 11 месяцев

Сообщений: 6040

Откуда: Soviet Union



Награды: Нет

Торрент-статистика

Создавать темы 11-Июл-2015 14:52

[Цитировать]

--Старики-разбойники DVDRip Страна: СССР
Производство: Мосфильм
Жанр: комедия
Год выпуска: 1971
Продолжительность: 01:26:27
Перевод: не требуется
Оригинальная аудиодорожка: русский
Cубтитры: нет
Режиссер: Эльдар Рязанов
В ролях:
Юрий Никулин, Евгений Евстигнеев, Ольга Аросева, Георгий Бурков, Андрей Миронов, Валентина Владимирова, Валентина Талызина, Юрий Белов, Роман Филиппов, Готлиб Ронинсон, Юрий Смирнов, Лев Дуров, Борис Рунге, Ирина Мурзаева, Нина Агапова, Виктор Байков, Александр Ширвиндт, Евгений Перов, Борис Владимиров, Георгий Куликов, Наталия Санько, Леонид Чубаров, Александр Январёв, Александра Данилова, Владимир Гуляев, Феликс Яворский, Эльдар Рязанов, Юрий Яковлев (текст от автора)...
Описание:
Следователя прокуратуры Николая Сергеевича Мячикова, достигшего пенсионного возраста, пытаются насильно «уйти» с работы, так как на его место есть кандидат, присланный «сверху». Но Фёдор Фёдорович Федяев, начальник Мячикова, мотивирует это тем, что за последние два месяца тот не раскрыл ни одного преступления. В это же время добровольно собирается на заслуженный отдых друг Мячикова — инженер Валентин Петрович Воробьёв. Однако, на прощальном собрании, тронутый "дежурными" речами коллег, которые Воробьев принимает за чистую монету, Валентин Петрович решает остаться на работе. А, чтобы помочь и другу, предлагает совершить «преступление века». Мячиков раскроет его, и начальству ничего не останется, как оставить следователя на службе. Для начала будущие пенсионеры отправляются в музей...- -Исходник: DVD5 R5
Тип релиза: DVDRip
Контейнер: AVI
Видео: 720x528 (4:3), 25 fps, XviD ~ 1952 kbps avg, 0.205 bit/pixel
Аудио: 48 kHz, Dolby AC3 5.1, 448 kbps

MediaInfo

Общее
Полное имя                               : Stariki-razbojniki.1971.DVDRip_[Youtracker]_by_AVP Studio.avi
Формат                                   : AVI
Формат/Информация                        : Audio Video Interleave
Размер файла                             : 1,46 Гбайт
Продолжительность                        : 1 ч. 26 м.
Общий поток                              : 2410 Кбит/сек
Программа кодирования                    : VirtualDubModRus 1.5.10.2 (build 2542/release)
Библиотека кодирования                   : VirtualDubMod build 2542/release
Видео
Идентификатор                            : 0
Формат                                   : MPEG-4 Visual
Профиль формата                          : Advanced Simple@L5
Параметр BVOP формата                    : 1
Параметр QPel формата                    : Нет
Параметр GMC формата                     : Без точки перехода
Параметр матрицы формата                 : Выборочная
Идентификатор кодека                     : XVID
Идентификатор кодека/Подсказка           : XviD
Продолжительность                        : 1 ч. 26 м.
Битрейт                                  : 1952 Кбит/сек
Ширина                                   : 720 пикселей
Высота                                   : 528 пикселей
Соотношение сторон                       : 4:3
Частота кадров                           : 25,000 кадров/сек
Цветовое пространство                    : YUV
Субдискретизация насыщенности            : 4:2:0
Битовая глубина                          : 8 бит
Тип развёртки                            : Прогрессивная
Метод сжатия                             : С потерями
Бит/(Пиксели*Кадры)                      : 0.205
Размер потока                            : 1,18 Гбайт (81%)
Библиотека кодирования                   : XviD 65
Аудио
Идентификатор                            : 1
Формат                                   : AC-3
Формат/Информация                        : Audio Coding 3
Расширение режима                        : CM (complete main)
Идентификатор кодека                     : 2000
Продолжительность                        : 1 ч. 26 м.
Вид битрейта                             : Постоянный
Битрейт                                  : 448 Кбит/сек
Каналы                                   : 6 каналов
Расположение каналов                     : Front: L C R, Side: L R, LFE
Частота                                  : 48,0 КГц
Битовая глубина                          : 16 бит
Метод сжатия                             : С потерями
Задержка видео                           : 558 мс.
Размер потока                            : 277 Мбайт (19%)
Выравнивание                             : Разделение по промежуткам
Продолжительность промежутка             : 40  мс. (1,00 видеокадр)
Время предзагрузки промежутка            : 500  мс

Скриншоты



Последний раз редактировалось: sergej644 (2015-08-07 17:36), всего редактировалось 1 раз
[Профиль] [ЛС]
Кто просматривает тему:

Форум Тема Автор Размер
Фантастика, фэнтези Алек Сэй - Мерзкий старикашка (2016) FB2 достали все 1 MB
Кино СССР В бой идут одни «старики» ( Леонид Быков)[1973, Драма, комедия, военный, BDRip] | Цветная версия Russian Mafia 1.45 GB
Фильмы (HD Rips | 720p, 1080p) В бой идут одни старики (1973) HDTV 1080i | Цветная версия sergej644 5.4 GB
Фантастика и фэнтези Война старика 2. Бригады призраков (Джон Скальци) [2015, Фантастика, аудиокнига, MP3, 128 kbps, Назаренко Михаил] Magnat 605 MB
Документальные HD Илья Старинов: Личный Враг Гитлера (Александр Евсюков) [21.01.2015, Документальный, HDTV 720p] TorrentFilm 1.3 GB
Разная литература Коллекция старинных книг истории России в оригинале [XVII век] [PDF, DjVu, JPG] KottoSoft 1.1 GB
Отечественные мультфильмы Любитель старины (Владлен Барбэ) [1988, мульфильм для взрослых, DVDRip] TorrentFilm 32 MB
Сатира и юмор Михаил Петрович Старицкий - За двумя зайцами [Александр Синица, 2012] Magnat 152 MB
Показать сообщения:    

Текущее время: Сегодня 10:52

Часовой пояс: GMT



Вы не можете начинать темы
Вы не можете отвечать на сообщения
Вы не можете редактировать свои сообщения
Вы не можете удалять свои сообщения
Вы не можете голосовать в опросах
Вы не можете прикреплять файлы к сообщениям
Вы не можете скачивать файлы