Старгёрл /Stargirl (Сезон 1 , Серия 1--13 из 13) (Энди Армаганян, Тоа Фрейзер) [2020, Фантастика, фэнтези, боевик,WEB-DLRip - HEVC 10bit - 1080p] [LostFilm+Eng]+[Subs Rus , ENG]

 
Author Message

Враг Нароода ®

Gender:

Longevity: 5 years 4 months

Posts: 390



: 2 ()

За внесенный вклад в развитие сайта (1) Mega Seeder 1 (1)
Торрент-статистика

Post 29-May-2020 09:24

[Quote]

---- Старгёрл /Stargirl (Сезон 1 , Серия 1-13 из 13) - Полный Комплект -- --Год выпуска: 2020
Выпущено: США , Berlanti Productions, DC Comics, Mad Ghost Productions, Warner Bros. Television
Жанр: Фантастика, фэнтези, боевик, драма, криминал, приключения
Продолжительность: 00:53:00
Сезон:1
Серия:1-13
Количество серий в сезоне: 13--Озвучка #1: Профессиональный многоголосый - LostFilm - Русский
Озвучка #2: Профессиональный многоголосый -Английский - Оригинал--Субтитры (UTF-8): вшитые
#1 - Русские (включены по умолчанию)
#2 - English (SDH)
#3 - English (Original)--Внешние:
#1 - English (SDH)
#2 - English (Original)
#3 - Russian
--Релиз Без Рекламы --IMDb 7.7 --Режиссеры:
Энди Армаганян, Тоа Фрейзер, Роб Харди--В ролях: Брэк Бэссинджер, Люк Уилсон, Анжелика Вашингтон, Кэмерон Джеллман, Джоэл МакХэйл, Нельсон Ли, Кристофер Джеймс Бэйкер, Мэг Келли, Нил Джексон, Ивет Монреаль--
Молодая американка Кортни Уитмор случайно узнаёт, что её отчим был помощником супергероя. Сама же она по неизвестным пока причинам может пользоваться сверхоружием одного из таких супергероев, ушедшего из жизни. И теперь спасение мира на ней - Старгёрл. Героиня загорается идеей создания собственной команды, «Общества справедливости Америки».-- --Качество :WEB-DLRip - HEVC 10bit - 1080p
Формат: MKV
Видео кодек: H265
Видео: 4503Кбит/сек,1920х872(22.1),в 23.976кадр/сек, HEVC (Main10@L5.1@Main)--Аудио Кодек:AC3
Аудио #1: MVO LostFilm @ DD5.1 AC3, 640 Kbps, 48.0 KHz, 6 ch - LostFilm - Русский
Аудио #2: Original@DD5.1 E-AC3 , 640 Kbps, 48.0 KHz, 6 ch - English - Оригинал--

Доп. информация:

Звуковая дорожка сделана путем наложения чистого голоса озвучивателей на центральный канал оригинальной дорожки. Качество идентично звуковой дорожке.
--

Список эпизодов сезона


1 сезон 1 серия - Пилот - Pilot
1 сезон 2 серия - С.Т.Р.А.Й.П. - S.T.R.I.P.E.
1 сезон 3 серия - Сосулька - Icicle
1 сезон 4 серия - Дикая Кошка - Wildcat
1 сезон 5 серия - Часовщик и Доктор Мид-Найт - Hourman and Dr. Mid-Nite
1 сезон 6 серия - Общество Справедливости - The Justice Society
1 сезон 7 серия - Заточка. Часть первая - Shiv Part One
1 сезон 8 серия - Заточка. Часть вторая - Shiv Part Two
1 сезон 9 серия - Озарение - Brainwave
1 сезон 10 серия - Озарение мл. - Brainwave Jr.
1 сезон 11 серия - Сияющий рыцарь - Shining Knight
1 сезон 12 серия - Звезды и С.Т.Р.А.Й.П. Часть 1 - Stars & S.T.R.I.P.E. Part One
1 сезон 13 серия - Звёзды и С.Т.Р.А.Й.П. Часть 2 - Stars & S.T.R.I.P.E. Part Two
--

MediaInfo 1Сезон

Общее
Уникальный идентификатор : 254020902344344794752750772195410890045 (0xBF1AA56F7EA3F3785439D5F348B4CD3D)
Полное имя : E:\RussianPatriot\Старгёрл - Stargirl\Stargirl_2020_S01_HEVC- 10Bit_Н265_DD5.1_N.B_HD_1080_LostFilm_Rus_Eng\Stargirl_S01E01_HEVC_Н265_DD5.1_N.B_HD_1080_LostFilm_Rus_Eng.mkv
Формат : Matroska
Версия формата : Version 4
Размер файла : 2,15 Гбайт
Продолжительность : 53 м. 8 с.
Общий поток : 5 785 Кбит/сек
Название фильма : Stargirl 2020 S01E01 @ Nikolai.Baranov & PIRATIYA
Дата кодирования : UTC 2020-05-27 09:22:31
Программа кодирования : mkvmerge v46.0.0 ('No Deeper Escape') 64-bit
Библиотека кодирования : libebml v1.3.10 + libmatroska v1.5.2
Видео
Идентификатор : 1
Формат : HEVC
Формат/Информация : High Efficiency Video Coding
Профиль формата : Main 10@L5.1@Main
Идентификатор кодека : V_MPEGH/ISO/HEVC
Продолжительность : 53 м. 8 с.
Битрейт : 4 503 Кбит/сек
Ширина : 1 920 пикселей
Высота : 872 пикселя
Соотношение сторон : 2,2:1
Режим частоты кадров : Постоянный
Частота кадров : 23,976 (24000/1001) кадра/сек
Цветовое пространство : YUV
Субдискретизация насыщенности : 4:2:0
Битовая глубина : 10 бит
Бит/(Пиксели*Кадры) : 0.112
Размер потока : 1,67 Гбайт (78%)
Заголовок : Stargirl_S01E01_HEVC_Н265_DD5.1_N.B_HD_1080_LostFilm_Rus_Eng
Язык : Russian
Default : Да
Forced : Нет
Цветовой диапазон : Full
Основные цвета : BT.709
Характеристики трансфера : BT.709
Коэффициенты матрицы : BT.709
Аудио #1
Идентификатор : 3
Формат : AC-3
Формат/Информация : Audio Coding 3
Коммерческое название : Dolby Digital
Идентификатор кодека : A_AC3
Продолжительность : 53 м. 8 с.
Вид битрейта : Постоянный
Битрейт : 640 Кбит/сек
Каналы : 6 каналов
Channel layout : L R C LFE Ls Rs
Частота : 48,0 КГц
Частота кадров : 31,250 кадров/сек (1536 SPF)
Метод сжатия : С потерями
Размер потока : 243 Мбайт (11%)
Заголовок : MVO LostFilm @DD5.1 AC3, 640 Kbps, 48.0 KHz, 6 ch
Язык : Russian
Service kind : Complete Main
Default : Да
Forced : Нет
Аудио #2
Идентификатор : 4
Формат : E-AC-3
Формат/Информация : Enhanced AC-3
Коммерческое название : Dolby Digital Plus
Идентификатор кодека : A_EAC3
Продолжительность : 53 м. 8 с.
Вид битрейта : Постоянный
Битрейт : 640 Кбит/сек
Каналы : 6 каналов
Channel layout : L R C LFE Ls Rs
Частота : 48,0 КГц
Частота кадров : 31,250 кадров/сек (1536 SPF)
Метод сжатия : С потерями
Размер потока : 243 Мбайт (11%)
Заголовок : Original@DD5.1 E-AC3 , 640 Kbps, 48.0 KHz, 6 ch
Язык : English
Service kind : Complete Main
Default : Нет
Forced : Нет
Текст #1
Идентификатор : 2
Формат : UTF-8
Идентификатор кодека : S_TEXT/UTF8
Идентификатор кодека/Информация : UTF-8 Plain Text
Продолжительность : 52 м. 10 с.
Битрейт : 70 бит/сек
Count of elements : 555
Размер потока : 27,0 Кбайт (0%)
Заголовок : Пилот-Russian
Язык : Russian
Default : Да
Forced : Нет
Текст #2
Идентификатор : 5
Формат : UTF-8
Идентификатор кодека : S_TEXT/UTF8
Идентификатор кодека/Информация : UTF-8 Plain Text
Продолжительность : 52 м. 39 с.
Битрейт : 53 бит/сек
Count of elements : 712
Размер потока : 20,5 Кбайт (0%)
Заголовок : Pilots-Original - SDH
Язык : English
Default : Нет
Forced : Нет
Текст #3
Идентификатор : 6
Формат : UTF-8
Идентификатор кодека : S_TEXT/UTF8
Идентификатор кодека/Информация : UTF-8 Plain Text
Продолжительность : 52 м. 11 с.
Битрейт : 45 бит/сек
Count of elements : 573
Размер потока : 17,6 Кбайт (0%)
Заголовок : Pilots-Original
Язык : English
Default : Нет
Forced : Нет
Меню
00:00:00.000 : ru:Глава 01 / ru:Глава 01 / ru:Глава 01 / ru:Глава 01 / ru:Глава 01 / ru:Глава 01
--

Скриншоты

--
1Сезон
--

Как закачать отдельный файл

1. Открыть торрент
2. Снять галки с тех файлов торрента, которые мы не хотим закачивать. Оставляем только на нужных нам файлах (файле).
3. Нажать О.К.
В клиенте utorrent
Инструкция
1) Открыть торрент

2) Снять галки с тех файлов торрента, которые мы не хотим закачивать:
* либо вручную, снимая с каждого файла галку( скрин №1)
* либо, нажав кнопку "Снять метки (Select None)", сняв сразу со всех файлов(скрин №2)
№1

№2

Оставляем только на нужных нам файлах (файле).

3)Нажать О.К
-- -- --Внимание!!! 15.09. 2020. РАЗДАЧА ОБНОВЛЕНА. ДОБАВЛЕНА -13 - СЕРИЯ . Финал Сезона . ОБНОВИТЕ ТОРЕНТ ФАЙЛ. ПРИЯТНОГО ПРОСМОТРА . Поблагодарить:
ЯД: 410017546713876
--Релиз от: Nikolai.Baranov & PIRATIYA -- -- -- --Время раздачи : 24/7---
[Profile] [PM]
Кто просматривает тему:

Display posts from previous:    

The time now is: Today 17:58

All times are GMT



You cannot post new topics in this forum
You cannot reply to topics in this forum
You cannot edit your posts in this forum
You cannot delete your posts in this forum
You cannot vote in polls in this forum
You cannot attach files in this forum
You cannot download files in this forum