Старая школа капитализма / Stara skola kapitalizma (Желимир Жилник / Zelimir Zilnik) [2009, Сербия, драма, DVDRip] + Sub Rus

 
Автор Сообщение

TorrentFilm ®

Пол:

Стаж: 2 года

Сообщений: 7741



Награды: Нет

Торрент-статистика

Создавать темы 08-Фев-2016 00:08

[Цитировать]

Старая школа капитализма / Stara skola kapitalizma
Страна: Сербия
Жанр: драма
Год выпуска: 2009
Продолжительность: 02:02:01
Перевод: Субтитры
Cубтитры: русские
Cубтитры: английские (хардсаб)
Оригинальная аудиодорожка: сербская
Режиссер: Желимир Жилник / Zelimir Zilnik
В ролях: Пера Чехов, Раде Чурчин, Майя Крек, Ратибор Тривунац, Тадей Курепа, Владимир Маркович, Тамара Миладинович, Леон Шурбанович, Живоин Попглигорин, Зоран Парошки, Лазар Стоянович, Бранимир Стоянович, Эрнест Ларсен, Томислав Миланков, Драган Стришки, Слободан Джорич
Описание: Докудрама Желимира Жилника "Старая школа капитализма" основана на событиях первой волны рабочих протестов, охвативших Сербию после проведения приватизации и ознаменовавших собой приход капитализма. Рабочие, которые не получали свою зарплату уже несколько месяцев, ломают заводские ворота и обнаруживают что цех завода пуст, а всё оборудование и станки уже вывезены и проданы владельцами. И пока рабочие решают что делать дальше, группа молодых анархистов предлагает им свою помощь и берёт владельцев в заложники, не собираясь на этом останавливаться...

Доп. информация

"...В каком-то смысле «Старая школа капитализма» — ремейк «Ранних работ»: главными героями становятся молодые анархисты из реально существующей газеты «Акция прямого действия», сыгравшие сами себя. Один из них сжигает американский флаг во время визита в Сербию Джо Байдена; его друзья сняли акцию на фотоаппарат, а режиссер включил ее в фильм. Как объясняет сам Жилник, политические события (прежде всего, забастовки профсоюзов, оккупации фабрик рабочими) использованы как ready-made, обраставший художественной плотью. Руководство страны не может выбрать между сотрудничеством с Америкой и Россией: появляется скользкий тип, который гарантирует местным богачам контракты с «Газпромом», а рабочим обещает, что Путин лично отправит 70 тысяч русских красавиц в качестве гуманитарной помощи сербским братьям. Эта язвительная комедия заканчивается так же горько, как и «Ранние работы»: любая радикальная группа обречена на поражение. Как только рабочие встречаются с левыми активистами, они моментально занимают сторону своих угнетателей, чья риторика им кажется ближе пугающих революционных лозунгов.
В «Старой школе капитализма» Жилник ставит несколько сложных сцен, где в кадре одновременно оказывается пара десятков ожесточенно спорящих друг с другом персонажей. Жилник сам направлял ход импровизированной политической дискуссии и снимал ее с трех камер. Споры и диалоги антагонистов — основа демократического метода Жилника, в фильмах которого никогда нет утверждения окончательной истины и нет готовых ответов: их главная движущая сила — сомнение. ..."
(Борис Нелепо, "Проект Жилника. Про всех несуществующих", "Сеанс", 2015 г.)
Сэмпл: http://multi-up.com/126932
Качество видео: DVDRip
Формат видео: AVI
Видео: XviD, 624*464, 4:3, 25.000 fps, 1 577 Kbps
Аудио: MP3, 48.0 KHz, 86.0 Kbps, mono
Формат субтитров: softsub (SRT)

MediaInfo

General
Complete name : ./Stara.skola.kapitalizma.avi
Format : AVI
Format/Info : Audio Video Interleave
Format profile : OpenDML
File size : 1.43 GiB
Duration : 2h 2mn
Overall bit rate mode : Variable
Overall bit rate : 1 678 Kbps
Writing application : MEncoder 1.0rc4-4.5.2
Writing library : MPlayer
Video
ID : 0
Format : MPEG-4 Visual
Format profile : Advanced Simple@L5
Format settings, BVOP : 1
Format settings, QPel : No
Format settings, GMC : No warppoints
Format settings, Matrix : Default (MPEG)
Codec ID : XVID
Codec ID/Hint : XviD
Duration : 2h 2mn
Bit rate : 1 577 Kbps
Width : 624 pixels
Height : 464 pixels
Display aspect ratio : 5:3
Original display aspect ratio : 4:3
Frame rate : 25.000 fps
Color space : YUV
Chroma subsampling : 4:2:0
Bit depth : 8 bits
Scan type : Progressive
Compression mode : Lossy
Bits/(Pixel*Frame) : 0.218
Stream size : 1.34 GiB (94%)
Writing library : XviD 1.2.1 (UTC 2008-12-04)
Audio
ID : 1
Format : MPEG Audio
Format version : Version 1
Format profile : Layer 3
Codec ID : 55
Codec ID/Hint : MP3
Duration : 2h 2mn
Bit rate mode : Variable
Bit rate : 86.0 Kbps
Channel(s) : 1 channel
Sampling rate : 48.0 KHz
Compression mode : Lossy
Stream size : 75.1 MiB (5%)
Alignment : Aligned on interleaves
Interleave, duration : 24 ms (0.60 video frame)
Interleave, preload duration : 491 ms

Скриншот c названием фильма

Скриншоты

Фрагмент субтитров

517
00:46:13,760 --> 00:46:18,020
Скоро мы будем жевать грязь и гальку.
Другого пути нет…
518
00:46:18,320 --> 00:46:23,239
Я жил в Москве в эпоху Ельцина.
- И что?
519
00:46:27,000 --> 00:46:30,409
Полная разруха, чувак. Полный хаос!
520
00:46:30,509 --> 00:46:33,919
Люди, продающие на улице последний
хлам, чтобы только выжить.
521
00:46:34,269 --> 00:46:36,669
Что нам-то продавать? Что?
522
00:46:36,920 --> 00:46:39,279
И как они выжили?
- Благодаря компенсациям?
523
00:46:40,960 --> 00:46:45,869
У них есть цирковые эксперты,
524
00:46:45,969 --> 00:46:50,879
которые применили свой опыт
в реальной жизни.
525
00:46:52,680 --> 00:46:57,269
Выпускников академий циркового
искусства
526
00:46:57,369 --> 00:47:01,959
назначили править государством.
527
00:47:02,800 --> 00:47:12,239
И так же, как это происходит в цирке,
превратили хаос в гармонию.
528
00:47:13,160 --> 00:47:18,519
Понятно? Нам нужна цирковая академия!
529
00:47:18,720 --> 00:47:23,329
Я останусь тут с Тамарой.
Буду всеми средствами,
530
00:47:23,429 --> 00:47:28,039
хоть оружием, бороться за то,
531
00:47:28,240 --> 00:47:33,399
чтобы им не досталось ни моего дома,
ни другой моей собственности.
532
00:47:33,600 --> 00:47:41,439
Извини, но я тут не останусь.
У меня мать болеет, и я ей нужна.
533
00:47:42,240 --> 00:47:44,999
Потом поеду в Вену к брату.
Вернусь не скоро.
534
00:47:45,200 --> 00:47:49,359
Это в лучшем случае.
А ты делай, что хочешь!
535
00:47:49,920 --> 00:47:53,879
А я останусь! - Далеко ты не уйдёшь.
Они подкараулят тебя у дома и выкрадут.
536
00:47:54,080 --> 00:47:58,559
Вена, щасс! - Увидим. Будь ты поумнее,
поступил бы как я.
537
00:47:59,440 --> 00:48:00,999
Я остаюсь!
[Профиль] [ЛС]

Создавать темы 12-Июн-2016 07:56 (спустя 4 месяца 4 дня)

Топик был перенесен из форума Фильмы 2011 года в форум Фильмы 2009 года
Russian Mafia
 
Показать сообщения:    

Текущее время: Сегодня 09:58

Часовой пояс: GMT



Вы не можете начинать темы
Вы не можете отвечать на сообщения
Вы не можете редактировать свои сообщения
Вы не можете удалять свои сообщения
Вы не можете голосовать в опросах
Вы не можете прикреплять файлы к сообщениям
Вы не можете скачивать файлы