Стальной рассвет / Steel Dawn (1987) BDRip-AVC

 
Автор Сообщение

Russian Mafia ®

Пол:

Стаж: 1 год 8 месяцев

Сообщений: 4252



Награды: 10 (Подробнее)

Mega Seeder 3 (Количество: 1) Top Releaser 2 (Количество: 1) Top Releaser 4 (Количество: 1)
Торрент-статистика

Создавать темы 29-Мар-2016 05:28

[Цитировать]

Стальной рассветSteel Dawn«Там где вода дороже крови, всё решает холодная сталь»- Страна: США
Жанр: фантастика, боевик, приключения
Год выпуска: 1987
Продолжительность: 01:40:20
Перевод: Профессиональный (многоголосый, закадровый) + Оригинальный
Субтитры: русские, английские.-Режиссер: Лэнс Хул / Lance Hool-В ролях: Патрик Суэйзи (Nomad), Лиза Ниеми (Kasha), Энтони Цербе (Damnil), Кристофер Ним (Sho), Брайон Джеймс (Tark), Джон Фудзиока (Cord), Бретт Хул (Jux), Марсель Ван Хирдэн (Lann), Арнольд Вослу (Makker), Джеймс Уайл (Tooey), Рассел Савадье (Off), Джо Рибейро (Cali)-Описание: Опустошительные войны и глобальные катаклизмы навсегда изменили облик Земли. В песках бескрайних пустынь, покрывших планету, жизнь жалких горсток людей целиком зависит от редких источников пресной воды. В этом суровом постапокалиптическом мире обитатели городка Меридиан живут в вечном страхе перед бандой безжалостного Дамнила, властвующего на их землях. Он намерен отнять драгоценный колодец у одинокой красавицы Кэйши и ее юного сына. Но планы головорезов внезапно нарушает появление загадочного Кочевника с острым мечом Миротворца. Молчаливый незнакомец с блестящими навыками воина и холодным сердцем героя встает на защиту городка и отважной женщины, поклявшись избавить их от злодеев. Но Дамнил не намерен сдаваться. Он поручает своим наемникам избавиться от чужака любым способом...-
MPAA: R - Лицам до 17 лет обязательно присутствие взрослого-Семпл-Качество: BDRip
Контейнер: MKV
Видео: AVC, 1024x576 (16:9), 3037 kbps, 23,976 fps, 0,215 bpp
Аудио №1: русский / AC3 / 5.1 / 48 kHz / 384 kbps
Аудио №2: английский / AC3 / 5.1 / 48 kHz / 448 kbps-

Media Info

---------------------------------------------------------------------------------------------------
x264 [info]: frame I:1230 Avg QP:16.77 size: 74645
x264 [info]: frame P:31411 Avg QP:19.05 size: 29402
x264 [info]: frame B:111695 Avg QP:21.15 size: 11370
---------------------------------------------------------------------------------------------------
Format : Matroska
Format version : Version 2
File size : 2.71 GiB
Duration : 1h 40mn
Overall bit rate : 3 871 Kbps
Movie name : = Стальной рассвет / Steel Dawn BDRip-AVC by SC Kosmos =
Encoded date : UTC 2015-12-22 14:31:44
Writing application : mkvmerge v3.3.0 ('Language') gebaut am Mar 24 2010 14:59:24
Writing library : libebml v0.8.0 + libmatroska v0.9.0
Attachment : Yes
Video
ID : 1
Format : AVC
Format/Info : Advanced Video Codec
Format profile : High@L4.1
Format settings, CABAC : Yes
Format settings, ReFrames : 10 frames
Codec ID : V_MPEG4/ISO/AVC
Duration : 1h 40mn
Bit rate : 3 037 Kbps
Width : 1 024 pixels
Height : 576 pixels
Display aspect ratio : 16:9
Frame rate : 23.976 fps
Color space : YUV
Chroma subsampling : 4:2:0
Bit depth : 8 bits
Scan type : Progressive
Bits/(Pixel*Frame) : 0.215
Stream size : 2.08 GiB (77%)
Title : Стальной рассвет / Steel Dawn BDRip-AVC by SC Kosmos
Writing library : x264 core 146 r2538 121396c
Encoding settings : cabac=1 / ref=10 / deblock=1:-1:-1 / analyse=0x3:0x113 / me=umh / subme=11 / psy=1 / psy_rd=1.00:0.00 / mixed_ref=1 / me_range=32 / chroma_me=1 / trellis=2 / 8x8dct=1 / cqm=0 / deadzone=21,11 / fast_pskip=0 / chroma_qp_offset=-2 / threads=12 / lookahead_threads=2 / sliced_threads=0 / nr=0 / decimate=1 / interlaced=0 / bluray_compat=0 / constrained_intra=0 / bframes=8 / b_pyramid=2 / b_adapt=2 / b_bias=0 / direct=3 / weightb=1 / open_gop=0 / weightp=2 / keyint=240 / keyint_min=23 / scenecut=40 / intra_refresh=0 / rc_lookahead=50 / rc=2pass / mbtree=0 / bitrate=3037 / ratetol=1.0 / qcomp=0.60 / qpmin=0 / qpmax=69 / qpstep=4 / cplxblur=20.0 / qblur=0.5 / vbv_maxrate=62500 / vbv_bufsize=78125 / nal_hrd=none / filler=0 / ip_ratio=1.40 / pb_ratio=1.30 / aq=1:1.00
Language : English
Default : No
Forced : No
Audio #1
ID : 2
Format : AC-3
Format/Info : Audio Coding 3
Mode extension : CM (complete main)
Codec ID : A_AC3
Duration : 1h 40mn
Bit rate mode : Constant
Bit rate : 384 Kbps
Channel(s) : 6 channels
Channel positions : Front: L C R, Side: L R, LFE
Sampling rate : 48.0 KHz
Bit depth : 16 bits
Compression mode : Lossy
Stream size : 276 MiB (10%)
Title : MVO
Language : Russian
Default : Yes
Forced : Yes
Audio #2
ID : 3
Format : AC-3
Format/Info : Audio Coding 3
Mode extension : CM (complete main)
Codec ID : A_AC3
Duration : 1h 40mn
Bit rate mode : Constant
Bit rate : 448 Kbps
Channel(s) : 6 channels
Channel positions : Front: L C R, Side: L R, LFE
Sampling rate : 48.0 KHz
Bit depth : 16 bits
Compression mode : Lossy
Stream size : 322 MiB (12%)
Language : English
Default : No
Forced : No
Text #1
ID : 4
Format : UTF-8
Codec ID : S_TEXT/UTF8
Codec ID/Info : UTF-8 Plain Text
Language : Russian
Default : Yes
Forced : No
Text #2
ID : 5
Format : UTF-8
Codec ID : S_TEXT/UTF8
Codec ID/Info : UTF-8 Plain Text
Language : English
Default : No
Forced : No
-

Скриншоты


[Профиль] [ЛС]
Показать сообщения:    

Текущее время: Сегодня 22:43

Часовой пояс: GMT



Вы не можете начинать темы
Вы не можете отвечать на сообщения
Вы не можете редактировать свои сообщения
Вы не можете удалять свои сообщения
Вы не можете голосовать в опросах
Вы не можете прикреплять файлы к сообщениям
Вы не можете скачивать файлы