Стальная бабочка (Ренат Давлетьяров) [2012, Россия, драма, криминал, детектив, BDRip 1080p]

 
Автор Сообщение

TorrentFilm ®

Пол:

Стаж: 2 года

Сообщений: 7741



Награды: Нет

Торрент-статистика

Создавать темы 01-Янв-2016 00:10

[Цитировать]

Стальная бабочка- Страна: Россия
Жанр: драма, криминал, детектив
Год выпуска: 2012
Продолжительность: 01:46:41-Режиссёр: Ренат Давлетьяров
В ролях: Дарья Мельникова (Чума), Анатолий Белый (Григорий Ханин), Дарья Мороз (Татьяна), Петр Винс (Косовский), Андрей Казаков (Зайцев), Виктор Немец (Приходько), Елена Галибина (инспектор по делам несовершеннолетних), Максим Дромашко (Толик), Мария Наумова (Вафля), Семен Трескунов (Карлик), Дмитрий Прищепа (Фикус), Андрей Лебедев (командировочный)
Описание: Беглые беспризорники во главе с юной Чумой зарабатывают на пропитание дерзкими ограблениями. Попавшись в очередной раз на разбое, Чума вынуждена под давлением полиции стать живой приманкой для серийного убийцы. Если она пополнит список жертв, искать ее никто не станет.
Почерк маньяка одинаков, все девушки похожи, а место охоты - лесной массив на окраине Москвы. Для опера Ханина поимка монстра не просто вопрос чести, но и цена погон. А для Чумы - цена свободы. Общая цель сближает юную беспризорницу и взрослого циничного опера.-
Релиз: by Bloodfighter-Качество: BDRip 1080p [BluRay Disc 1080p]
Контейнер: MKV
Видео: H.264/AVC, 1920x1080 (16:9), 24 fps, ~10000 kbps
Аудио: DTS 5.1, 48 kHz, 755 kbps
Навигация по главам: есть-

Знаете ли вы, что...

  • Маньяка, который нападает в начале фильма на девочку с мольбертом сыграл Ренат Давлетьяров.
  • Первая монтажная сборка длилась 2 часа 13 минут.
  • В сцене, когда Ханин отправляется на поиски Чумы и под дождем садится в машину, по переднему плану проходит девушка с зонтом - это Дарья Мельникова.
  • Татьяну, подругу Ханина, по началу играла другая актриса. Ренат Давлетьяров решил ее заменить, и были пересняты все сцены с ней. У Дарьи Мороз на подготовку к этой роли был всего 1 день.
  • Из фильма вырезана целая линия с начальником Ханина.
  • В сцене, когда Чума сообщает Ханину, что постирала его свитер, по телевизору идет клип Анны Пингиной на песню «Ласточка». Эта песня звучит в фильме еще 3 раза.
  • Во время съемок эпизода в логове беспризорников с потолка свалилась огромная лампа, буквально за секунду до этого режиссер пересадил с этого места актера.
  • Персонаж Карлик (Семен Трескунов) по сценарию должен пропадать из фильма, но его игра так понравилась режиссеру, что он не только оставил его, но и придумал для него новую сцену, где он просится идти в парк с Чумой.
  • На роль Чумы пробовалось около 300 девушек. Но в топ 10, отобранных кастинг-директором, Дарья Мельникова не вошла.
  • Сцена в конце фильма, когда Ханин выходит из кабинета и имитирует разговор по телефону была придумана уже после того, как весь фильм был окончательно смонтирован. Сняли ее в коридоре, рядом с монтажной. Кстати, можно разглядеть, что модель телефона у Ханина уже другая, потому что его игровой телефон к тому времени уже был утерян.

MediaInfo

General
Complete name : Stalnaya.babochka.2012.1080p.BluRay.Rus.mkv
Format : Matroska
Format version : Version 2
File size : 8.01 GiB
Duration : 1h 46mn
Overall bit rate : 10.8 Mbps
Movie name : RED for HDCLUB
Encoded date : UTC 2012-11-24 09:08:21
Writing application : mkvmerge v5.8.0 ('No Sleep / Pillow') built on Sep 2 2012 15:37:04
Writing library : libebml v1.2.3 + libmatroska v1.3.0
Video
ID : 1
Format : AVC
Format/Info : Advanced Video Codec
Format profile : High@L4.1
Format settings, CABAC : Yes
Format settings, ReFrames : 4 frames
Codec ID : V_MPEG4/ISO/AVC
Duration : 1h 46mn
Bit rate : 10 000 Kbps
Width : 1 920 pixels
Height : 1 080 pixels
Display aspect ratio : 16:9
Frame rate : 24.000 fps
Color space : YUV
Chroma subsampling : 4:2:0
Bit depth : 8 bits
Scan type : Progressive
Bits/(Pixel*Frame) : 0.201
Stream size : 7.29 GiB (91%)
Title : Stalnaya.babochka.2012.1080p.Bluray.Rip.x264.DTS.HDCLUB
Writing library : x264 core 129 r2230 1cffe9f
Encoding settings : cabac=1 / ref=4 / deblock=1:-3:-3 / analyse=0x3:0x133 / me=umh / subme=11 / psy=1 / psy_rd=1.10:0.01 / mixed_ref=1 / me_range=48 / chroma_me=1 / trellis=2 / 8x8dct=1 / cqm=0 / deadzone=21,11 / fast_pskip=0 / chroma_qp_offset=-2 / threads=12 / lookahead_threads=2 / sliced_threads=0 / nr=0 / decimate=1 / interlaced=0 / bluray_compat=0 / constrained_intra=0 / bframes=9 / b_pyramid=2 / b_adapt=2 / b_bias=0 / direct=3 / weightb=1 / open_gop=0 / weightp=2 / keyint=250 / keyint_min=23 / scenecut=40 / intra_refresh=0 / rc_lookahead=60 / rc=2pass / mbtree=0 / bitrate=10000 / ratetol=1.0 / qcomp=0.60 / qpmin=0 / qpmax=69 / qpstep=4 / cplxblur=20.0 / qblur=0.5 / vbv_maxrate=50000 / vbv_bufsize=62500 / nal_hrd=none / ip_ratio=1.40 / pb_ratio=1.30 / aq=1:0.80
Language : Russian
Default : Yes
Forced : Yes
Audio
ID : 2
Format : DTS
Format/Info : Digital Theater Systems
Codec ID : A_DTS
Duration : 1h 46mn
Bit rate mode : Constant
Bit rate : 755 Kbps
Channel(s) : 6 channels
Channel positions : Front: L C R, Side: L R, LFE
Sampling rate : 48.0 KHz
Bit depth : 24 bits
Compression mode : Lossy
Stream size : 576 MiB (7%)
Title : DTS 5.1 @ 768 kbps - Original, BD RUS
Language : Russian
Default : Yes
Forced : Yes
Menu
00:00:00.000 : ru:00:00:00.000
00:00:43.916 : ru:00:00:43.916
00:09:05.833 : ru:00:09:05.833
00:23:03.833 : ru:00:23:03.833
00:34:57.333 : ru:00:34:57.333
00:52:50.541 : ru:00:52:50.541
01:11:15.958 : ru:01:11:15.958
01:22:36.500 : ru:01:22:36.500
01:40:52.416 : ru:01:40:52.416
- Built with Flash Release
[Профиль] [ЛС]
Показать сообщения:    

Текущее время: Сегодня 13:02

Часовой пояс: GMT



Вы не можете начинать темы
Вы не можете отвечать на сообщения
Вы не можете редактировать свои сообщения
Вы не можете удалять свои сообщения
Вы не можете голосовать в опросах
Вы не можете прикреплять файлы к сообщениям
Вы не можете скачивать файлы