Стальная бабочка (2012) BDRip

 
Автор Сообщение

Russian Mafia ®

Пол:

Стаж: 1 год 8 месяцев

Сообщений: 4252



Награды: 10 (Подробнее)

Top Releaser 3 (Количество: 1) Mega Seeder 2 (Количество: 1) Top Releaser 4 (Количество: 1)
Торрент-статистика

Создавать темы 09-Май-2015 13:01

[Цитировать]

Информация о фильме:
Оригинальное название: Стальная бабочка
Год выхода: 2012
Жанр: Драма, Криминал, Детектив
Режиссёр: Ренат Давлетьяров
В ролях: Дарья Мороз, Петр Винс, Андрей Казаков, Анатолий Белый, Елена Галибина, Максим Дромашко, Мария Наумова, Семен Трескунов, Виктор Немец, Дарья Мельникова
Сюжет фильма:
Беглые беспризорники во главе с юной Чумой зарабатывают на пропитание дерзкими ограблениями. Попавшись в очередной раз на разбое, Чума вынуждена под давлением полиции стать живой приманкой для серийного убийцы. Если она пополнит список жертв, искать ее никто не станет.
Почерк маньяка одинаков, все девушки похожи, а место охоты – лесной массив на окраине Москвы. Для опера Ханина поимка монстра не просто вопрос чести, но и цена погон. А для Чумы – цена свободы. Общая цель сближает юную беспризорницу и взрослого циничного опера.


Страна: Россия
Продолжительность: 01:46:41
Перевод: Не требуется
Субтитры: Отсутствуют
Информация о файле:
Качество: BDRip
Файл: AVI
Кодек: XviD, build 65 codec
Видео: 720 x 400, 16:9; 23.976 fps; ~ 2295 kbps; 0.332 bit/pixel
Аудио : 48 kHz, AC3 Dolby Digital, 3/2 (L,C,R,l,r) + LFE ch, ~448.00 kbps avg
Размер: 2102 Mb (1/2 )

MediaInfo

General
Format : AVI
Format/Info : Audio Video Interleave
Format profile : OpenDML
File size : 2.05 GiB
Duration : 1h 46mn
Overall bit rate : 2 756 Kbps
Movie name : Stalnaya.Babochka.2012.RUS.BDRip.XviD.AC3.-HQ-ViDEO
Director : AngelOfTrue
Writing application : VirtualDubMod 1.5.10.3 | www.virtualdub-fr.org || (build 2550/release)
Original source form/Name : Movie
Copyright : HQ-ViDEO
Comment : 03.03.2013
Video
ID : 0
Format : MPEG-4 Visual
Format profile : Advanced Simple@L5
Format settings, BVOP : 1
Format settings, QPel : No
Format settings, GMC : No warppoints
Format settings, Matrix : Custom
Codec ID : XVID
Codec ID/Hint : XviD
Duration : 1h 46mn
Bit rate : 2 295 Kbps
Width : 720 pixels
Height : 400 pixels
Display aspect ratio : 16:9
Frame rate : 24.000 fps
Color space : YUV
Chroma subsampling : 4:2:0
Bit depth : 8 bits
Scan type : Progressive
Compression mode : Lossy
Bits/(Pixel*Frame) : 0.332
Stream size : 1.71 GiB (83%)
Writing library : XviD 65
Audio
ID : 1
Format : AC-3
Format/Info : Audio Coding 3
Mode extension : CM (complete main)
Codec ID : 2000
Duration : 1h 46mn
Bit rate mode : Constant
Bit rate : 448 Kbps
Channel(s) : 6 channels
Channel positions : Front: L C R, Side: L R, LFE
Sampling rate : 48.0 KHz
Bit depth : 16 bits
Compression mode : Lossy
Stream size : 342 MiB (16%)
Alignment : Split accross interleaves
Interleave, duration : 42 ms (1.00 video frame)
Interleave, preload duration : 500 ms

Знаете ли вы, что...

Маньяка, который нападает в начале фильма на девочку с мольбертом сыграл Ренат Давлетьяров.
Первая монтажная сборка длилась 2 часа 13 минут.
В сцене, когда Ханин отправляется на поиски Чумы и под дождем садится в машину, по переднему плану проходит девушка с зонтом — это Дарья Мельникова.
Татьяну, подругу Ханина, по началу играла другая актриса. Ренат Давлетьяров решил ее заменить, и были пересняты все сцены с ней. У Дарьи Мороз на подготовку к этой роли был всего 1 день.
Из фильма вырезана целая линия с начальником Ханина.
В сцене, когда Чума сообщает Ханину, что постирала его свитер, по телевизору идет клип Анны Пингиной на песню «Ласточка». Эта песня звучит в фильме еще 3 раза.
Во время съемок эпизода в логове беспризорников с потолка свалилась огромная лампа, буквально за секунду до этого режиссер пересадил с этого места актера.
Персонаж Карлик (Семен Трескунов) по сценарию должен пропадать из фильма, но его игра так понравилась режиссеру, что он не только оставил его, но и придумал для него новую сцену, где он просится идти в парк с Чумой.
На роль Чумы пробовалось около 300 девушек. Но в топ 10, отобранных кастинг-директором, Дарья Мельникова не вошла.
Сцена в конце фильма, когда Ханин выходит из кабинета и имитирует разговор по телефону была придумана уже после того, как весь фильм был окончательно смонтирован. Сняли ее в коридоре, рядом с монтажной. Кстати, можно разглядеть, что модель телефона у Ханина уже другая, потому что его игровой телефон к тому времени уже был утерян.
Релиз:
Автор рипа: AngelOfTrue
Источник: Blu-Ray RemuxПРИЯТНОГО ПРОСМОТРА!
[Профиль] [ЛС]
Показать сообщения:    

Текущее время: Сегодня 20:43

Часовой пояс: GMT



Вы не можете начинать темы
Вы не можете отвечать на сообщения
Вы не можете редактировать свои сообщения
Вы не можете удалять свои сообщения
Вы не можете голосовать в опросах
Вы не можете прикреплять файлы к сообщениям
Вы не можете скачивать файлы