Стальная бабочка (2012) BDRip 1080p

 
Автор Сообщение

sergej644 ®

Пол:

Стаж: 4 года 11 месяцев

Сообщений: 6045

Откуда: Soviet Union



Награды: Нет

Торрент-статистика

Создавать темы 27-Янв-2015 04:59

[Цитировать]

Информация о фильме
Название: Стальная бабочка
Год выхода: 2012
Жанр: драма, криминал, детектив
Режиссер: Ренат Давлетьяров
В ролях: Дарья Мельникова, Анатолий Белый, Дарья Мороз, Елена Галубина, Андрей Казаков, Петр Винс, Алексей Семченков, Максим Дромашко, Виктор Немец, Мария Наумова
О фильме: Беглые беспризорники во главе с юной Чумой зарабатывают на пропитание дерзкими ограблениями. Попавшись в очередной раз на разбое, Чума вынуждена под давлением полиции стать живой приманкой для серийного убийцы. Если она пополнит список жертв, искать ее никто не станет.
Почерк маньяка одинаков, все девушки похожи, а место охоты — лесной массив на окраине Москвы. Для опера Ханина поимка монстра не просто вопрос чести, но и цена погон. А для Чумы — цена свободы. Общая цель сближает юную беспризорницу и взрослого циничного опера.

Выпущено: Интерфест
Продолжительность: 01:46:42
Перевод: Оригинал (лицензия)
Файл
Кодек: x264
Качество: BDRip (источник: Blu-ray Disc)
Видео: 1920x1080 (16:9), 24 fps, 5417 kbps
Аудио: AC-3, 6 ch, 448 kbps
Скачать: сэмпл сэмпл 2Скриншоты

MI

Общее
Уникальный идентификатор : 203478587802338670678184429065765904336 (0x99148CEF783386E59FE0DBF632D3DFD0)
Полное имя : Stalnaya.babochka.2012.BDRip.1080p.Rus.mkv
Формат : Matroska
Версия формата : Version 2
Размер файла : 4,37 Гбайт
Продолжительность : 1 ч. 46 м.
Общий поток : 5866 Кбит/сек
Название фильма : Стальная бабочка (2012)
Дата кодирования : UTC 2012-11-24 11:45:41
Программа кодирования : mkvmerge v5.8.0 ('No Sleep / Pillow') built on Sep 2 2012 15:37:04
Библиотека кодирования : libebml v1.2.3 + libmatroska v1.3.0
Видео
Идентификатор : 1
Формат : AVC
Формат/Информация : Advanced Video Codec
Профиль формата : High@L4.1
Параметр CABAC формата : Да
Параметр ReFrames формата : 4 кадра
Идентификатор кодека : V_MPEG4/ISO/AVC
Продолжительность : 1 ч. 46 м.
Битрейт : 5417 Кбит/сек
Ширина : 1920 пикселей
Высота : 1080 пикселей
Соотношение сторон : 16:9
Частота кадров : 24,000 кадра/сек
Цветовое пространство : YUV
Субдискретизация насыщенности : 4:2:0
Битовая глубина : 8 бит
Тип развёртки : Прогрессивная
Бит/(Пиксели*Кадры) : 0.109
Размер потока : 3,95 Гбайт (90%)
Заголовок : Release by AlexKa
Библиотека кодирования : x264 core 129 r2230 1cffe9f
Настройки программы : cabac=1 / ref=4 / deblock=1:0:0 / analyse=0x3:0x133 / me=umh / subme=10 / psy=1 / psy_rd=1.00:0.00 / mixed_ref=1 / me_range=32 / chroma_me=1 / trellis=2 / 8x8dct=1 / cqm=0 / deadzone=21,11 / fast_pskip=0 / chroma_qp_offset=-2 / threads=12 / lookahead_threads=2 / sliced_threads=0 / nr=0 / decimate=0 / interlaced=0 / bluray_compat=0 / constrained_intra=0 / bframes=5 / b_pyramid=2 / b_adapt=2 / b_bias=0 / direct=3 / weightb=1 / open_gop=0 / weightp=2 / keyint=240 / keyint_min=24 / scenecut=40 / intra_refresh=0 / rc=2pass / mbtree=0 / bitrate=5417 / ratetol=1.0 / qcomp=0.60 / qpmin=0 / qpmax=69 / qpstep=4 / cplxblur=20.0 / qblur=0.5 / ip_ratio=1.40 / pb_ratio=1.30 / aq=1:1.00
Язык : Russian
Аудио
Идентификатор : 2
Формат : AC-3
Формат/Информация : Audio Coding 3
Расширение режима : CM (complete main)
Идентификатор кодека : A_AC3
Продолжительность : 1 ч. 46 м.
Вид битрейта : Постоянный
Битрейт : 448 Кбит/сек
Каналы : 6 каналов
Расположение каналов : Front: L C R, Side: L R, LFE
Частота : 48,0 КГц
Битовая глубина : 16 бит
Метод сжатия : С потерями
Размер потока : 342 Мбайт (8%)
Заголовок : Rus
Язык : Russian
Меню
00:00:00.000 : :Chapter 01
00:00:43.916 : :Chapter 02
00:09:05.833 : :Chapter 03
00:23:03.833 : :Chapter 04
00:34:57.333 : :Chapter 05
00:52:50.541 : :Chapter 06
01:11:15.958 : :Chapter 07
01:22:36.500 : :Chapter 08
01:40:52.416 : :Chapter 09
01:46:40.541 : :Chapter 10

x264

x264 [info]: frame I:1160 Avg QP:16.88 size:191987
x264 [info]: frame P:36151 Avg QP:19.17 size: 55589
x264 [info]: frame B:116326 Avg QP:20.73 size: 18064
[Профиль] [ЛС]
Показать сообщения:    

Текущее время: Сегодня 06:05

Часовой пояс: GMT



Вы не можете начинать темы
Вы не можете отвечать на сообщения
Вы не можете редактировать свои сообщения
Вы не можете удалять свои сообщения
Вы не можете голосовать в опросах
Вы не можете прикреплять файлы к сообщениям
Вы не можете скачивать файлы