Сталкер / Stalker [01x01-07 из 13] (2014) WEB-DL 1080p | NewStudio

 
Автор Сообщение

Белочка ®

Пол:

Стаж: 5 лет 1 месяц

Сообщений: 2089



Награды: 1 (Подробнее)

Girls (Количество: 1)
Торрент-статистика

Создавать темы 15-Ноя-2014 00:42

[Цитировать]

Название: Сталкер
Оригинальное название: Stalker
Год выпуска: 2014
Жанр: Триллер, драма
Выпущено: США, Outerbanks Entertainment, Warner Bros. Television
Режиссер: Бронуэн Хьюз, Лиз Фридлендер
В ролях: Дилан МакДермотт, Мэгги Кью, Гэбриел Бейтман, Эрик Стоклин, Шерилин Уилсон, Престон Джонс
О фильме:
История о детективах, работающих в отделе по контролю за угрозами департамента полиции Лос-Анджелеса. Они занимаются любыми делами, связанными с преследованием, от вуайеризма до кибер-преследования.

Содержание

01. Пилот / Pilot
02. Что случилось с малышом Джеймсом? / What Ever Happened to Baby James
03. Manhunt
04. Phobia
05. The Haunting
06. Love Is a Battlefield
07. Fanatic

Страна: США, Outerbanks Entertainment, Warner Bros. Television
Продолжительность: ~ 00:44:00
Перевод: Профессиональный (многоголосый, закадровый) - NewStudio
Файл
Кодек: h.264
Качество: WEB-DL 1080p
Видео: MPEG-4 AVC, ~ 5000 Кбит/с, 1916x1076, 23.976 кадр/с
Звук: Русский, английский (AC3, 6 ch, 384 Кбит/с)

MI

Общее
Уникальный идентификатор : 215197147496968375188689280893216782111 (0xA1E5768934FE8BFE856625491876771F)
Полное имя : Stalker.s01e01.WEBDL.1080p.NewStudio.TV.mkv
Формат : Matroska
Версия формата : Version 2
Размер файла : 1,74 Гбайт
Продолжительность : 43 м.
Общий поток : 5763 Кбит/сек
Дата кодирования : UTC 2014-10-03 12:58:06
Программа кодирования : mkvmerge v2.9.9 ('Tutu') built on Nov 25 2009 21:13:32
Библиотека кодирования : libebml v0.7.9 + libmatroska v0.8.1
Attachements : small_cover.jpg / cover.jpg / cover_land.jpg / small_cover_land.jpg
Видео
Идентификатор : 1
Формат : AVC
Формат/Информация : Advanced Video Codec
Профиль формата : High@L4.0
Параметр CABAC формата : Да
Параметр ReFrames формата : 4 кадра
Идентификатор кодека : V_MPEG4/ISO/AVC
Продолжительность : 43 м.
Битрейт : 4881 Кбит/сек
Ширина : 1916 пикселей
Высота : 1076 пикселей
Соотношение сторон : 16:9
Режим частоты кадров : Постоянный
Частота кадров : 23,976 кадра/сек
Цветовое пространство : YUV
Субдискретизация насыщенности : 4:2:0
Битовая глубина : 8 бит
Тип развёртки : Прогрессивная
Бит/(Пиксели*Кадры) : 0.099
Размер потока : 1,47 Гбайт (85%)
Язык : English
Default : Нет
Forced : Нет
Основные цвета : BT.709
Характеристики трансфера : BT.709
Коэффициенты матрицы : BT.709
Аудио #1
Идентификатор : 2
Формат : AC-3
Формат/Информация : Audio Coding 3
Расширение режима : CM (complete main)
Параметр Endianness формата : Big
Идентификатор кодека : A_AC3
Продолжительность : 43 м.
Вид битрейта : Постоянный
Битрейт : 384 Кбит/сек
Каналы : 6 каналов
Расположение каналов : Front: L C R, Side: L R, LFE
Частота : 48,0 КГц
Битовая глубина : 16 бит
Метод сжатия : С потерями
Размер потока : 119 Мбайт (7%)
Язык : Russian
Default : Да
Forced : Да
Аудио #2
Идентификатор : 3
Формат : AC-3
Формат/Информация : Audio Coding 3
Расширение режима : CM (complete main)
Параметр Endianness формата : Big
Идентификатор кодека : A_AC3
Продолжительность : 43 м.
Вид битрейта : Постоянный
Битрейт : 384 Кбит/сек
Каналы : 6 каналов
Расположение каналов : Front: L C R, Side: L R, LFE
Частота : 48,0 КГц
Битовая глубина : 16 бит
Метод сжатия : С потерями
Размер потока : 119 Мбайт (7%)
Язык : English
Default : Нет
Forced : Нет

Скриншоты



[Профиль] [ЛС]
Показать сообщения:    

Текущее время: Сегодня 18:24

Часовой пояс: GMT



Вы не можете начинать темы
Вы не можете отвечать на сообщения
Вы не можете редактировать свои сообщения
Вы не можете удалять свои сообщения
Вы не можете голосовать в опросах
Вы не можете прикреплять файлы к сообщениям
Вы не можете скачивать файлы