Сталин: случай в Самаре ("Особо важное задание") Алексей Меняйлов (2012) WEB-DLRip

 
Автор Сообщение

sergej644 ®

Пол:

Стаж: 4 года 11 месяцев

Сообщений: 6042

Откуда: Soviet Union



Награды: Нет

Торрент-статистика

Создавать темы 03-Дек-2014 18:46

[Цитировать]

-Сталин: случай в Самаре ("Особо важное задание") Алексей Меняйлов (2012) WEB-DLRip- Режиссер / Телекомпания: Алексей Меняйлов/Партизанская правда партизан
Год выпуска: 2012
Жанр: Документальный
Описание:
Эвакуированный в Самару авиационный завод №18 выпускал менее полутора самолетов в сутки. Вмешался Сталин и уже через несколько дней завод выпускал 26 самолетов в сутки.
Продолжительность: 00:14:07
Качество видео: WEB-DLRip
Видеокодек: DivX 5
Битрейт видео: ~999 kb/s
Размер кадра: 720x540
Аудиокодек: MP3, 2ch
Битрейт аудио: 192 kb/s

Mediainfo:

General
Формат                                   : AVI
Формат/Информация                        : Audio Video Interleave
Размер файла                             : 121 MiB
Продолжительность                        : 14mn 6s
Общий поток                              : 1 200 Kbps
Video
Идентификатор                            : 0
Формат                                   : MPEG-4 Visual
Параметр BVOP формата                    : 1
Параметр QPel формата                    : No
Параметр GMC формата                     : No warppoints
Параметр матрицы формата                 : Default (H.263)
Режим смешивания                         : Packed bitstream
Идентификатор кодека                     : DX50
Идентификатор кодека/Подсказка           : DivX 5
Продолжительность                        : 14mn 6s
Битрейт                                  : 999 Kbps
Ширина                                   : 720 pixels
Высота                                   : 540 pixels
Соотношение сторон                       : 4:3
Частота кадров                           : 25.000 fps
Цветовое пространство                    : YUV
Субдискретизация насыщенности            : 4:2:0
Битовая глубина                          : 8 bits
Тип развёртки                            : Progressive
Метод сжатия                             : Lossy
Бит/(Пиксели*Кадры)                      : 0.103
Размер потока                            : 101 MiB (83%)
Заголовок                                : Video
Библиотека кодирования                   : DivX 2682
Audio
Идентификатор                            : 1
Формат                                   : MPEG Audio
Версия формата                           : Version 1
Профиль формата                          : Layer 3
Режим                                    : Joint stereo
Идентификатор кодека                     : 55
Идентификатор кодека/Подсказка           : MP3
Продолжительность                        : 14mn 6s
Вид битрейта                             : Constant
Битрейт                                  : 192 Kbps
Каналы                                   : 2 channels
Частота                                  : 48.0 KHz
Метод сжатия                             : Lossy
Размер потока                            : 19.4 MiB (16%)
Выравнивание                             : Split accross interleaves
Продолжительность промежутка             : 40 ms (1.00 video frame)
Время предзагрузки промежутка            : 500 ms
Заголовок                                : Audio - en-US01
Скриншоты:
Время раздачи: с 8:00 до 01:00
[Профиль] [ЛС]
Кто просматривает тему:

Форум Тема Автор Размер
Action TPS (3rd Person) Red Orchestra 2: Герои Сталинграда / Red Orchestra 2: Heroes of Stalingrad (2011) PC | Steam-Rip от Juk.v.Muravenike достали все 23.7 GB
Программы [Читалки] Сталин. Цитаты v1.8 [Android 4.0, RUS] TorrentFilm 4 MB
Разная литература Александр Никишин - Тайны русской водки. Эпоха Иосифа Сталина [История культуры России, 2013, FB2, RTF] Garik014 9 MB
Отечественные cериалы Алмазы Сталина [01-04 из 04] (2016) SATRip BOSS 2.17 GB
Фантастика, фэнтези Валерий Большаков | Позывной: «Колорад». Наш человек Василий Сталин (2016) [FB2] достали все 1 MB
Разная литература Верхотуров Дмитрий - Сталинская экономика Победы. «Было время – и цены снижали» (2016) FB2 достали все 1 MB
Фильмы 2013 года Зима холодной стали / Steel Cold Winter (2013) HDRip | L2 достали все 1.47 GB
Эпоха СССР И.В. Сталин, Л.М.Каганович (авторы), О. В. Хлевнюк, Р. У. Дэвис, Л. П. Кошелева, Э. А. Рис, Л. А. Рогова (составители) - Сталин и Каганович. Переписка. 1931 - 1936 гг [2001, DjVu] sergej644 17 MB
Показать сообщения:    

Текущее время: Сегодня 18:14

Часовой пояс: GMT



Вы не можете начинать темы
Вы не можете отвечать на сообщения
Вы не можете редактировать свои сообщения
Вы не можете удалять свои сообщения
Вы не можете голосовать в опросах
Вы не можете прикреплять файлы к сообщениям
Вы не можете скачивать файлы