Сталинград (Фёдор Бондарчук) [2013, Россия, военный, драма, боевик, DVD5 (сжатый)] исх. R5, Original Rus

 
Автор Сообщение

TorrentFilm ®

Пол:

Стаж: 2 года

Сообщений: 7741



Награды: Нет

Торрент-статистика

Создавать темы 01-Янв-2016 00:20

[Цитировать]

Сталинград
Страна: Россия
Жанр: военный, драма, боевик
Год выпуска: 2013
Продолжительность: 02:05:29
Перевод: Оригинал [Лицензия]
Cубтитры: нет
Оригинальная аудиодорожка: русский
Режиссер: Фёдор Бондарчук
В ролях: Пётр Фёдоров, Томас Кречманн, Мария Смольникова, Янина Студилина, Дмитрий Лысенков, Алексей Барабаш, Андрей Смоляков, Сергей Бондарчук, Олег Волку, Хайнер Лаутербах, Олег Тилькин, Ян Кузьмин, Кирилл Варакса, Полина Райкина, Юрий Уткин, Олег Малышев
Описание: 1942-й год. Сталинград. Советские войска планируют контрнаступление на немецкие части, занявшие правый берег Волги. Наступление сорвано. Лишь разведчикам под командованием капитана Громова удается перебраться на другой берег и закрепиться в одном из домов. Им дан приказ удержать его любой ценой. Кроме нескольких чудом уцелевших советских солдат они находят в доме его последнюю жительницу — 19-летнюю Катю.
Приказ отбить дом, захваченный противником, получает немецкий офицер Кан. На фоне одного из самых кровопролитных сражений в истории человечества разворачиваются истории любви и драматического противостояния характеров.
Бонусы: нет
Меню: русское, статичное, озвученное
Тип релиза: DVD5 (Сжатый)
Контейнер: DVD-Video
Видео: PAL 16:9 (720x576) 4 239 Kbps
Аудио: Russian (Dolby AC3, 6 ch) 448 Kbps

Доп. информация

Обработано в DVDRemake Pro.+Photoshop+Muxman
Видео сжималось 31%.
Сжималось связкой DVD Rebuilder + CCE/Procoder в 5 проходов.
Удалёно: Фильм о фильме, Фотогалерея со съемочной площадки, Представляем съемочную группу, Ролики, Russian (Dolby AC3, 2 ch), Russian (DTS, 5 ch), заставки и предупреждение.
Лишние кнопки затерты и закрыты.

Лог кодирования

[22:49:11] Phase I, PREPARATION started.
- DVD-RB v1.28.2
- AVISYNTH 2.5.8.0
- CCE 1.0.1.9 encoder selected.
- Source: STALYNGRAD.2013.DVD5
- VTS_02: 3 117 980 sectors.
-- Scanning and writing .D2V & .AVS files
-- Processed 188 245 frames.
-- Building .AVS and .ECL files
- Reduction Level for DVD-5: 69,4%
- Overall Bitrate : 4 367Kbs
- Space for Video : 4 013 820KB
- HIGH/LOW/TYPICAL Bitrates: 4 656/3 950/4 367 Kbs
[22:50:53] Phase I, PREPARATION completed in 1 minutes.
-----------------
[23:08:01] Phase I, PREPARATION started.
- DVD-RB v1.28.2
- AVISYNTH 2.5.8.0
- CCE 1.0.1.9 encoder selected.
- Source: STALYNGRAD.2013.DVD5
- VTS_02: 3 117 980 sectors.
-- Scanning and writing .D2V & .AVS files
-- Processed 188 245 frames.
-- Building .AVS and .ECL files
- Reduction Level for DVD-5: 69,4%
- Overall Bitrate : 4 367Kbs
- Space for Video : 4 013 682KB
- HIGH/LOW/TYPICAL Bitrates: 4 656/3 950/4 367 Kbs
[23:09:25] Phase I, PREPARATION completed in 1 minutes.
- WARNING: Viewer/Editor settings are over target.
[23:09:48] Phase II ENCODING started
- Creating M2V for VTS_02 segment 0
- Creating M2V for VTS_02 segment 1
- Creating M2V for VTS_02 segment 2
- Creating M2V for VTS_02 segment 3
- Creating M2V for VTS_02 segment 4
- Creating M2V for VTS_02 segment 5
- Creating M2V for VTS_02 segment 6
- Creating M2V for VTS_02 segment 7
- Creating M2V for VTS_02 segment 8
- Creating M2V for VTS_02 segment 9
- Creating M2V for VTS_02 segment 10
- Creating M2V for VTS_02 segment 11
[00:18:42] Phase II ENCODING completed in 69 minutes.
[00:19:05] Phase III, REBUILD started.
- Copying IFO, BUP, and unaltered files...
- Processing VTS_02
- Reading/processing TMAP table...
- Rebuilding seg 0 VOBID 1 CELLID 1
- Rebuilding seg 1 VOBID 1 CELLID 2
- Rebuilding seg 2 VOBID 1 CELLID 3
- Rebuilding seg 3 VOBID 1 CELLID 4
- Rebuilding seg 4 VOBID 1 CELLID 5
- Rebuilding seg 5 VOBID 1 CELLID 6
- Rebuilding seg 6 VOBID 1 CELLID 7
- Rebuilding seg 7 VOBID 1 CELLID 8
- Rebuilding seg 8 VOBID 1 CELLID 9
- Rebuilding seg 9 VOBID 1 CELLID 10
- Rebuilding seg 10 VOBID 1 CELLID 11
- Rebuilding seg 11 VOBID 1 CELLID 12
- Updating NAVPACKS for VOBID_01
- Updated VTS_C_ADT.
- Updated VTS_VOBU_ADMAP.
- Updated IFO: VTS_02_0.IFO
- Updating TMAP table...
- Correcting VTS Sectors...
[00:30:10] Phase III, REBUILD completed in 11 minutes.
Done.

MediaInfo

General
Complete name : D:\_Video\Stalyngrad.2013.DVD5\VIDEO_TS\VTS_02_1.VOB
Format : MPEG-PS
File size : 1 024 MiB
Duration : 29mn 56s
Overall bit rate : 4 782 Kbps
Video
ID : 224 (0xE0)
Format : MPEG Video
Format version : Version 2
Format profile : Main@Main
Format settings, BVOP : Yes
Format settings, Matrix : Custom
Duration : 29mn 56s
Bit rate mode : Variable
Bit rate : 4 239 Kbps
Maximum bit rate : 8 468 Kbps
Width : 720 pixels
Height : 576 pixels
Display aspect ratio : 16:9
Frame rate : 25.000 fps
Standard : PAL
Color space : YUV
Chroma subsampling : 4:2:0
Bit depth : 8 bits
Scan type : Progressive
Scan order : Bottom Field First
Compression mode : Lossy
Bits/(Pixel*Frame) : 0.409
Stream size : 908 MiB (89%)
Audio
ID : 189 (0xBD)-128 (0x80)
Format : AC-3
Format/Info : Audio Coding 3
Mode extension : CM (complete main)
Muxing mode : DVD-Video
Duration : 29mn 56s
Bit rate mode : Constant
Bit rate : 448 Kbps
Channel(s) : 6 channels
Channel positions : Front: L C R, Side: L R, LFE
Sampling rate : 48.0 KHz
Bit depth : 16 bits
Compression mode : Lossy
Stream size : 95.9 MiB (9%)
Menu

DVDInfo

Title: Bob
Size: 4.36 Gb ( 4 573 472 KBytes ) - DVD-5
Enabled regions: 1, 2, 3, 4, 5, 6, 7, 8
VTS_01 :
Play Length:
Video: PAL 4:3 (720x576) VBR
Audio:
Russian (Dolby AC3, 6 ch)
English (Dolby AC3, 6 ch)
English (Dolby AC3, 6 ch)
VTS_02 :
Play Length: 02:05:29
Video: PAL 16:9 (720x576) VBR, Auto Pan&Scan, Auto Letterboxed
Audio:
Russian (Dolby AC3, 6 ch)
Russian (Dolby AC3, 2 ch)
Russian (DTS, 5 ch)

Cкриншот финального проекта

Скриншоты меню

Скриншоты



Раздача от группы:
[Профиль] [ЛС]
Кто просматривает тему:

Форум Тема Автор Размер
Action TPS (3rd Person) Red Orchestra 2: Герои Сталинграда / Red Orchestra 2: Heroes of Stalingrad (2011) PC | Steam-Rip от Juk.v.Muravenike достали все 23.7 GB
Программы [Читалки] Сталин. Цитаты v1.8 [Android 4.0, RUS] TorrentFilm 4 MB
Разная литература Александр Никишин - Тайны русской водки. Эпоха Иосифа Сталина [История культуры России, 2013, FB2, RTF] Garik014 9 MB
Отечественные cериалы Алмазы Сталина [01-04 из 04] (2016) SATRip BOSS 2.17 GB
Фантастика, фэнтези Валерий Большаков | Позывной: «Колорад». Наш человек Василий Сталин (2016) [FB2] достали все 1 MB
Разная литература Верхотуров Дмитрий - Сталинская экономика Победы. «Было время – и цены снижали» (2016) FB2 достали все 1 MB
Фильмы 2013 года Зима холодной стали / Steel Cold Winter (2013) HDRip | L2 достали все 1.47 GB
Эпоха СССР И.В. Сталин, Л.М.Каганович (авторы), О. В. Хлевнюк, Р. У. Дэвис, Л. П. Кошелева, Э. А. Рис, Л. А. Рогова (составители) - Сталин и Каганович. Переписка. 1931 - 1936 гг [2001, DjVu] sergej644 17 MB
Показать сообщения:    

Текущее время: Сегодня 01:28

Часовой пояс: GMT



Вы не можете начинать темы
Вы не можете отвечать на сообщения
Вы не можете редактировать свои сообщения
Вы не можете удалять свои сообщения
Вы не можете голосовать в опросах
Вы не можете прикреплять файлы к сообщениям
Вы не можете скачивать файлы