Стажер / The Intern (2015) HDRip-AVC | iTunes

 
Автор Сообщение

РАЛЬФ ®

Стаж: 1 год 5 месяцев

Сообщений: 8



Награды: Нет

Торрент-статистика

Создавать темы 08-Янв-2016 09:49

[Цитировать]

Информация о фильме
Название: Стажер
Оригинальное название: The Intern
Год выхода: 2015
Жанр: Комедия, мелодрама
Режиссер: Нэнси Майерс
В ролях: Роберт Де Ниро, Энн Хэтэуэй, Рене Руссо, Андерс Холм, ДжоДжо Кушнер, Эндрю Рэннеллс, Адам Дивайн, Илан Кригсфелд, Зак Перлман, Джейсон Орли
О фильме:
70-летний вдовец Бен Уитакер обнаруживает, что выход на пенсию — еще не конец. Пользуясь случаем, он становится старшим стажером в интернет-магазине модной одежды под руководством Джулс Остин.

Официальный сайт
Выпущено: США / Waverly Films
Продолжительность: 02:01:32
Перевод: Дублированный [iTunes]
Файл
Формат: MKV
Качество: HDRip-AVC
Видео: MPEG-4 AVC, 1850 Кбит/с, 1024x576
Аудио 1: Русский (AC3, 6 ch, 384 Кбит/с) Дублированный [iTunes]
Аудио 2: Английский (AC3, 6 ch, 384 Кбит/с) Оригинал
Субтитры: Русские, английские
Семпл

MI

Общее
Уникальный идентификатор : 195287974808657100103422291159536692844 (0x92EB188961A137B4AA1EC3E1BCB4EE6C)
Полное имя : E:Раздача-BDRipStazher.2015.HDRip-AVC.mkv
Формат : Matroska
Версия формата : Version 2
Размер файла : 2,22 Гбайт
Продолжительность : 2 ч. 1 м.
Общий поток : 2618 Кбит/сек
Название фильма : Стажер / The Intern (2015) HDRip-AVC
Дата кодирования : UTC 2016-01-08 01:27:22
Программа кодирования : mkvmerge v5.8.0 ('No Sleep / Pillow') built on Sep 2 2012 15:37:04
Библиотека кодирования : libebml v1.2.3 + libmatroska v1.3.0
Видео
Идентификатор : 1
Формат : AVC
Формат/Информация : Advanced Video Codec
Профиль формата : High@L4.1
Параметр CABAC формата : Да
Параметр ReFrames формата : 11 кадров
Идентификатор кодека : V_MPEG4/ISO/AVC
Продолжительность : 2 ч. 1 м.
Битрейт : 1850 Кбит/сек
Ширина : 1024 пикселя
Высота : 576 пикселей
Соотношение сторон : 16:9
Режим частоты кадров : Постоянный
Частота кадров : 23,976 кадра/сек
Стандарт вещания : Component
Цветовое пространство : YUV
Субдискретизация насыщенности : 4:2:0
Битовая глубина : 8 бит
Тип развёртки : Прогрессивная
Бит/(Пиксели*Кадры) : 0.131
Размер потока : 1,53 Гбайт (69%)
Библиотека кодирования : x264 core 144 r2525
Настройки программы : cabac=1 / ref=11 / deblock=1:-3:-3 / analyse=0x3:0x112 / me=umh / subme=9 / psy=1 / psy_rd=1.00:1.00 / mixed_ref=0 / me_range=16 / chroma_me=1 / trellis=1 / 8x8dct=1 / cqm=0 / deadzone=21,11 / fast_pskip=1 / chroma_qp_offset=-4 / threads=6 / lookahead_threads=1 / sliced_threads=0 / nr=0 / decimate=1 / interlaced=0 / bluray_compat=0 / constrained_intra=0 / bframes=12 / b_pyramid=2 / b_adapt=2 / b_bias=6 / direct=3 / weightb=0 / open_gop=0 / weightp=1 / keyint=239 / keyint_min=23 / scenecut=49 / intra_refresh=0 / rc_lookahead=40 / rc=2pass / mbtree=1 / bitrate=1850 / ratetol=1.0 / qcomp=0.80 / qpmin=4 / qpmax=69 / qpstep=12 / cplxblur=20.0 / qblur=0.5 / ip_ratio=1.00 / aq=3:1.00
Default : Да
Forced : Нет
Аудио #1
Идентификатор : 2
Формат : AC-3
Формат/Информация : Audio Coding 3
Расширение режима : CM (complete main)
Параметр Endianness формата : Big
Идентификатор кодека : A_AC3
Продолжительность : 2 ч. 1 м.
Вид битрейта : Постоянный
Битрейт : 384 Кбит/сек
Каналы : 6 каналов
Расположение каналов : Front: L C R, Side: L R, LFE
Частота : 48,0 КГц
Битовая глубина : 16 бит
Метод сжатия : С потерями
Задержка видео : -83 мс.
Размер потока : 334 Мбайт (15%)
Заголовок : DUB [iTunes]
Язык : Russian
Default : Да
Forced : Нет
Аудио #2
Идентификатор : 3
Формат : AC-3
Формат/Информация : Audio Coding 3
Расширение режима : CM (complete main)
Параметр Endianness формата : Big
Идентификатор кодека : A_AC3
Продолжительность : 2 ч. 1 м.
Вид битрейта : Постоянный
Битрейт : 384 Кбит/сек
Каналы : 6 каналов
Расположение каналов : Front: L C R, Side: L R, LFE
Частота : 48,0 КГц
Битовая глубина : 16 бит
Метод сжатия : С потерями
Задержка видео : -83 мс.
Размер потока : 334 Мбайт (15%)
Заголовок : Original
Язык : English
Default : Нет
Forced : Нет
Текст #1
Идентификатор : 4
Формат : UTF-8
Идентификатор кодека : S_TEXT/UTF8
Идентификатор кодека/Информация : UTF-8 Plain Text
Заголовок : full
Язык : Russian
Default : Нет
Forced : Нет
Текст #2
Идентификатор : 5
Формат : UTF-8
Идентификатор кодека : S_TEXT/UTF8
Идентификатор кодека/Информация : UTF-8 Plain Text
Язык : English
Default : Нет
Forced : Нет
Меню
00:00:00.000 : en:00:00:00.000
00:09:31.154 : en:00:09:31.154
00:19:55.361 : en:00:19:55.361
00:30:29.953 : en:00:30:29.953
00:41:18.434 : en:00:41:18.434
00:50:18.682 : en:00:50:18.682
01:00:34.047 : en:01:00:34.047
01:10:19.048 : en:01:10:19.048
01:19:16.460 : en:01:19:16.460
01:30:59.913 : en:01:30:59.913
01:42:48.496 : en:01:42:48.496
01:51:11.206 : en:01:51:11.206
01:56:41.995 : en:01:56:41.995

Интересно

Первоначально на роль Джулс рассматривалась Риз Уизерспун, но она покинула проект, и роль в итоге досталась Энн Хэтэуэй.
Прежде чем предложить роль Бена Уитакера Роберту Де Ниро, Нэнси Майерс предлагала ее Джеку Николсону.
Ошибки в фильме:
В одной из сцен разговора Джулс Остин с Кэмероном можно заметить, что мобильный телефон последнего не находится в режиме «разговор», вместо этого на экране устройства открыт главный экран.

Скриншоты

[Профиль] [ЛС]
Показать сообщения:    

Текущее время: Сегодня 18:14

Часовой пояс: GMT



Вы не можете начинать темы
Вы не можете отвечать на сообщения
Вы не можете редактировать свои сообщения
Вы не можете удалять свои сообщения
Вы не можете голосовать в опросах
Вы не можете прикреплять файлы к сообщениям
Вы не можете скачивать файлы