Стажер / The Intern (Нэнси Майерс) [2015, Мелодрама, комедия , WEB-DLRip-AVC 1080p] [DD5.1] [Dub Rus , Eng]+[Sub Rus , Eng]

 
Автор Сообщение

Враг Нароода ®

Стаж: 1 год 8 месяцев

Сообщений: 112



Награды: 2 (Подробнее)

Mega Seeder 1 (Количество: 1) За внесенный вклад в развитие сайта (Количество: 1)
Торрент-статистика

Создавать темы 31-Дек-2015 13:36

[Цитировать]

--Стажер / The Intern-- --Год выпуска: 2015
Выпущено: США, Waverly Films
Жанр: Мелодрама, комедия
Продолжительность: 02:01:30
Озвучка # 1 :Русский : - [Дубляж, iTunes Russia ]
Озвучка # 2 :Английский : - Оригинал , iTunes US
Субтитры: Russian (Forced, iTunes), Russian (iTunes), English (iTunes) -- --Режиссер: Нэнси Майерс--В ролях: Роберт Де Ниро, Энн Хэтэуэй, Рене Руссо, Андерс Холм, ДжоДжо Кушнер, Эндрю Рэннеллс, Адам Дивайн, Зак Перлман, Джейсон Орли, Кристина Шерер, Нат Вулф, Линда Лавин, Селия Уэстон, Стив Винович, С.Дж. Уилсон, Мэри Кэй Плэйс, Эрин Маккей, Кристина Брукато, Уоллис Карри-Вуд, Молли Бернард-- 70-летний вдовец Бен Уитакер обнаруживает, что выход на пенсию — еще не конец. Пользуясь случаем, он становится старшим стажером в интернет-магазине модной одежды под руководством Джулс Остин.-- --Качество :WEB-DLRip-AVC 1080p
Формат: MKV
Видео кодек: H264
Видео: 5068Кбит/сек,1912х1072(16.9),в 23.976кадр/сек,AVC(High@L4)(CABAC/4 Ref Frames)
Аудио Кодек:AC3
Аудио #1:AC3 , 384 Kbps, 48.0 KHz, 6 ch- -Русский - [ Дубляж]
Аудио #3: AC3, 384 Kbps, 48.0 KHz, 6 ch - - Английский - Оригинал--

MediaInfo

Общее
Уникальный идентификатор : 220569571300293660247933012504249216018 (0xA5F0277AE1EF9F719A4C8B3641C1AC12)
Полное имя : D:\К О М Е Д И И\СТАЖЁР\THE_INTERN_2015_Rus_Eng[ iTunes_Russia]_x264_N.B_WEB-DLRip_1080p\THE_INTERN_2015_Rus_Eng[ iTunes_Russia]_x264_N.B_WEB-DLRip_1080p.mkv
Формат : Matroska
Версия формата : Version 4 / Version 2
Размер файла : 4,96 Гбайт
Продолжительность : 2 ч. 1 м.
Общий поток : 5838 Кбит/сек
Название фильма : THE_INTERN_2015_Rus_Eng[ iTunes_Russia]_x264_N.B_WEB-DLRip_1080p
Дата кодирования : UTC 2015-12-31 06:35:13
Программа кодирования : mkvmerge v8.6.1 ('Flying') 64bit
Библиотека кодирования : libebml v1.3.3 + libmatroska v1.4.4
Attachements : cover_land.jpg / small_cover.jpg / small_cover_land.jpg / cover.jpg
Видео
Идентификатор : 1
Формат : AVC
Формат/Информация : Advanced Video Codec
Профиль формата : High@L4
Параметр CABAC формата : Да
Параметр ReFrames формата : 4 кадра
Идентификатор кодека : V_MPEG4/ISO/AVC
Продолжительность : 2 ч. 1 м.
Битрейт : 5068 Кбит/сек
Ширина : 1912 пикселей
Высота : 1072 пикселя
Соотношение сторон : 16:9
Режим частоты кадров : Постоянный
Частота кадров : 23,976 кадра/сек
Цветовое пространство : YUV
Субдискретизация насыщенности : 4:2:0
Битовая глубина : 8 бит
Тип развёртки : Прогрессивная
Бит/(Пиксели*Кадры) : 0.103
Размер потока : 4,30 Гбайт (87%)
Заголовок : The Intern (2015) - Release for HDCLUB
Язык : English
Default : Да
Forced : Нет
Цветовой диапазон : Limited
Основные цвета : BT.709
Характеристики трансфера : BT.709
Коэффициенты матрицы : BT.709
Аудио #1
Идентификатор : 2
Формат : AC-3
Формат/Информация : Audio Coding 3
Расширение режима : CM (complete main)
Параметр Endianness формата : Big
Идентификатор кодека : A_AC3
Продолжительность : 2 ч. 1 м.
Вид битрейта : Постоянный
Битрейт : 384 Кбит/сек
Каналы : 6 каналов
Расположение каналов : Front: L C R, Side: L R, LFE
Частота : 48,0 КГц
Частота кадров : 31,250 кадров/сек (1536 spf)
Метод сжатия : С потерями
Размер потока : 334 Мбайт (7%)
Заголовок : AC3 5.1 @ 384 kbps - DUB, iTunes
Язык : Russian
Default : Да
Forced : Нет
Аудио #2
Идентификатор : 3
Формат : AC-3
Формат/Информация : Audio Coding 3
Расширение режима : CM (complete main)
Параметр Endianness формата : Big
Идентификатор кодека : A_AC3
Продолжительность : 2 ч. 1 м.
Вид битрейта : Постоянный
Битрейт : 384 Кбит/сек
Каналы : 6 каналов
Расположение каналов : Front: L C R, Side: L R, LFE
Частота : 48,0 КГц
Частота кадров : 31,250 кадров/сек (1536 spf)
Метод сжатия : С потерями
Размер потока : 334 Мбайт (7%)
Заголовок : AC3 5.1 @ 384 kbps
Язык : English
Default : Нет
Forced : Нет
Текст #1
Идентификатор : 4
Формат : UTF-8
Идентификатор кодека : S_TEXT/UTF8
Идентификатор кодека/Информация : UTF-8 Plain Text
Продолжительность : 1 ч. 25 м.
Битрейт : 1 бит/сек
Count of elements : 21
Размер потока : 940 байт (0%)
Заголовок : Forced, iTunes
Язык : Russian
Default : Да
Forced : Нет
Текст #2
Идентификатор : 5
Формат : UTF-8
Идентификатор кодека : S_TEXT/UTF8
Идентификатор кодека/Информация : UTF-8 Plain Text
Продолжительность : 1 ч. 55 м.
Битрейт : 136 бит/сек
Count of elements : 2417
Размер потока : 115 Кбайт (0%)
Заголовок : iTunes
Язык : Russian
Default : Нет
Forced : Нет
Текст #3
Идентификатор : 6
Формат : UTF-8
Идентификатор кодека : S_TEXT/UTF8
Идентификатор кодека/Информация : UTF-8 Plain Text
Продолжительность : 1 ч. 55 м.
Битрейт : 86 бит/сек
Count of elements : 2450
Размер потока : 73,4 Кбайт (0%)
Заголовок : iTunes
Язык : English
Default : Нет
Forced : Нет
Меню
00:00:00.000 : en:1
00:09:30.000 : en:2
00:19:54.000 : en:3
00:29:39.000 : en:4
00:30:29.000 : en:5
00:41:17.000 : en:6
00:50:18.000 : en:7
01:00:33.000 : en:8
01:10:18.000 : en:9
01:19:15.000 : en:10
01:30:58.000 : en:11
01:42:48.000 : en:12
01:51:10.000 : en:13
01:56:41.000 : en:14
--

Скриншоты

-- -- -- --Релиз от: Nikolai.Baranov -- -- -- --
[Профиль] [ЛС]
Показать сообщения:    

Текущее время: Сегодня 20:43

Часовой пояс: GMT



Вы не можете начинать темы
Вы не можете отвечать на сообщения
Вы не можете редактировать свои сообщения
Вы не можете удалять свои сообщения
Вы не можете голосовать в опросах
Вы не можете прикреплять файлы к сообщениям
Вы не можете скачивать файлы