Стадион шиворот-навыворот (Владимир Тарасов) [1976, Рисованный мультфильм, WEBRip]

 
Автор Сообщение

TorrentFilm ®

Пол:

Стаж: 2 года

Сообщений: 7741



Награды: Нет

Торрент-статистика

Создавать темы 18-Июл-2015 00:06

[Цитировать]

Стадион шиворот-навыворот
Страна: СССР
Жанр: Рисованный мультфильм
Продолжительность: 00:08:45
Год выпуска: 1976
Русские субтитры: нет
Режиссёр: Владимир Тарасов
Описание: Эксцентрическая трюковая спортивная комедия, высмеивающая тех ребят, которые знают спорт только по телевизионным передачам, а сами им не занимаются, хотя и считают себя спортсменами.
Доп. информация:
«Союзмультфильм»
Автор: Аркадий Хайт
Художник: В.Песков
Композитор: Б.Шнапер
Оператор:М.Друян
Раздача группы:
Качество: WEBRip
Формат: AVI
Видео: 640x496 (1.29:1), 25 fps, XviD build 50 ~1099 kbps avg, 0.14 bit/pixel
Аудио: 32 kHz, MPEG Layer 3, 2 ch, ~96.00 kbps avg
Субтитры: нет

Подробные технические данные

Format : AVIFormat/Info : Audio Video InterleaveFile size : 75.5 MiBDuration : 8mn 45sOverall bit rate : 1 206 KbpsWriting application : VirtualDubMod 1.5.10.2 (build 2540/release)Writing library : VirtualDubMod build 2540/release
VideoID : 0Format : MPEG-4 VisualFormat profile : Advanced Simple@L5Format settings, BVOP : 1Format settings, QPel : NoFormat settings, GMC : No warppointsFormat settings, Matrix : Default (MPEG)Codec ID : XVIDCodec ID/Hint : XviDDuration : 8mn 45sBit rate : 1 100 KbpsWidth : 640 pixelsHeight : 496 pixelsDisplay aspect ratio : 1.290Frame rate : 25.000 fpsColor space : YUVChroma subsampling : 4:2:0Bit depth : 8 bitsScan type : ProgressiveCompression mode : LossyBits/(Pixel*Frame) : 0.139Stream size : 68.9 MiB (91%)Writing library : XviD 1.2.1 (UTC 2008-12-04)
AudioID : 1Format : MPEG AudioFormat version : Version 1Format profile : Layer 3Codec ID : 55Codec ID/Hint : MP3Duration : 8mn 45sBit rate mode : ConstantBit rate : 96.0 KbpsChannel(s) : 2 channelsSampling rate : 32.0 KHzCompression mode : LossyStream size : 6.02 MiB (8%)Alignment : Aligned on interleavesInterleave, duration : 40 ms (1.00 video frame)Interleave, preload duration : 504 msWriting library : LAME3.98rEncoding settings : -m s -V 4 -q 0 -lowpass 15.1 -b 96

интересные факты

Участвует вокально-инструментальный ансамбль "Оловянные солдатики" под руководством А. Горина

Скриншоты

[Профиль] [ЛС]
Показать сообщения:    

Текущее время: Сегодня 08:51

Часовой пояс: GMT



Вы не можете начинать темы
Вы не можете отвечать на сообщения
Вы не можете редактировать свои сообщения
Вы не можете удалять свои сообщения
Вы не можете голосовать в опросах
Вы не можете прикреплять файлы к сообщениям
Вы не можете скачивать файлы