Ставка на любовь (2015) WEB-DLRip-AVC | iTunes

 
Автор Сообщение

достали все ®

Пол:

Стаж: 1 год 8 месяцев

Сообщений: 6611



Награды: 12 (Подробнее)

Top Releaser 3 (Количество: 1) Mega Releaser 3 (Количество: 1) Mega Releaser 2 (Количество: 1)
Торрент-статистика

Создавать темы 29-Фев-2016 11:21

[Цитировать]

Информация о фильме
Название: Ставка на любовь
Год выпуска: 2015
Страна: Россия
Жанр: комедия, мелодрама-Перевод: Оригинальный [iTunes]
Продолжительность: 01:32:01-Режиссер: Артем Михалков
В ролях: Ованнес Азоян, Андрей Бурковский, Катерина Шпица, Ян Цапник, Вадим Андреев, Ольга Тумайкина, Александр Ревва, Дмитрий Хрусталев, Ирина Чипиженко, Алла Михеева, Дарина Грибоедова (Светлана, консультант в автосалоне), Андрей Смоляков-Описание:
Костя и Давид - друзья детства, и вот спустя годы им, наконец, суждено проверить дружбу на прочность. Давид собирается сделать предложение своей возлюбленной, Анне, а Костя хочет выйти в финал международного чемпионата по покеру. Два, казалось бы, совершенно несвязанных события, становятся решающими в жизни друзей, так как Давиду придется играть в покер, а Косте - спасать свадьбу друга! Смогут ли они оставаться собой и спасти положение, поменявшись местами?-Рейтинг:
-Качество: WEB-DLRip-AVC
Формат: MKV
Видео: AVC, 1024x428 (2.40:1), 1885 kbps, 24 fps, 0,179 bpp
Аудио: русский / AC3 / 5.1 / 48 kHz / 384 kbps / 16 bit-Релиз от: by schultz

ОтчетМедиаИнфо

General
Unique ID : 211225738312303230973884438712285846744 (0x9EE898F218A8833D94CA83AEB13ADCD8)
Complete name : D:downloadStavka.Ha.Lu6ov.2016.WEB-DLRip-AVC by schultz R.G.Resident.mkv
Format : Matroska
Format version : Version 2
File size : 1.46 GiB
Duration : 1h 32mn
Overall bit rate : 2 269 Kbps
Encoded date : UTC 2016-02-29 01:05:18
Writing application : mkvmerge v7.8.0 ('River Man') 32bit built on Apr 3 2015 12:11:22
Writing library : libebml v1.3.1 + libmatroska v1.4.2
Video
ID : 1
Format : AVC
Format/Info : Advanced Video Codec
Format profile : High@L4.1
Format settings, CABAC : Yes
Format settings, ReFrames : 12 frames
Codec ID : V_MPEG4/ISO/AVC
Duration : 1h 32mn
Bit rate : 1 885 Kbps
Width : 1 024 pixels
Height : 428 pixels
Display aspect ratio : 2.40:1
Frame rate : 24.000 fps
Color space : YUV
Chroma subsampling : 4:2:0
Bit depth : 8 bits
Scan type : Progressive
Bits/(Pixel*Frame) : 0.179
Stream size : 1.18 GiB (81%)
Writing library : x264 core 146 r2538 121396c
Encoding settings : cabac=1 / ref=12 / deblock=1:-3:-3 / analyse=0x3:0x113 / me=umh / subme=11 / psy=1 / psy_rd=1.00:0.00 / mixed_ref=1 / me_range=48 / chroma_me=1 / trellis=2 / 8x8dct=1 / cqm=0 / deadzone=21,11 / fast_pskip=0 / chroma_qp_offset=-2 / threads=12 / lookahead_threads=3 / sliced_threads=0 / nr=0 / decimate=1 / interlaced=0 / bluray_compat=0 / constrained_intra=0 / bframes=13 / b_pyramid=2 / b_adapt=2 / b_bias=0 / direct=3 / weightb=1 / open_gop=0 / weightp=2 / keyint=240 / keyint_min=23 / scenecut=40 / intra_refresh=0 / rc_lookahead=40 / rc=2pass / mbtree=1 / bitrate=1885 / ratetol=1.0 / qcomp=0.60 / qpmin=0 / qpmax=69 / qpstep=4 / cplxblur=20.0 / qblur=0.5 / vbv_maxrate=14000 / vbv_bufsize=14000 / nal_hrd=none / filler=0 / ip_ratio=1.40 / aq=1:1.00
Default : Yes
Forced : No
Audio
ID : 2
Format : AC-3
Format/Info : Audio Coding 3
Mode extension : CM (complete main)
Codec ID : A_AC3
Duration : 1h 32mn
Bit rate mode : Constant
Bit rate : 384 Kbps
Channel(s) : 6 channels
Channel positions : Front: L C R, Side: L R, LFE
Sampling rate : 48.0 KHz
Bit depth : 16 bits
Compression mode : Lossy
Stream size : 253 MiB (17%)
Language : Russian
Default : Yes
Forced : No

Скриншоты

[Профиль] [ЛС]
Кто просматривает тему:

Форум Тема Автор Размер
Фильмы 2011 года SuperПерцы / СуперПерцы / Четкие пацаны / Superbad (Грег Моттола / Greg Mottola) [2007, США, Комедия, BDRip] [Расширенная версия / Unrated] Dub (со вставками DVO) + Original Eng + subs (Rus, Eng) TorrentFilm 2.18 GB
Документальные HD Битва за доставку (сезон 6) / Shipping Wars [2014, Познавательный, History Channel HD, DVB] TorrentFilm 5.16 GB
Отечественные cериалы Высокие ставки [01-24 из 24] (2015) HDTVRip достали все 12.91 GB
Отечественные cериалы Высокие ставки [S01] (2015) HDTVRip 720p достали все 37 GB
Фильмы 2014 года Геракл / Hercules (Бретт Рэтнер / Brett Ratner) [2014, США, боевик, приключения, BDRip] [Extended Cut] Dub (BD RUS + вставки Д.Есарева на Extended-эпизоды) + Original Eng + subs (full pack) TorrentFilm 2.18 GB
Разная литература Йоаким Марнитц, Стивен Харрис, Эндрю Брокер - Искусство ставить на спорт. Первое пособие по ставкам на русском языке (2016) FB2 достали все 3 MB
Зарубежные сериалы Кайф с доставкой / High Maintenance [S01] (2016) HDTVRip 720p | Jaskier Russian Mafia 4.1 GB
Отечественные cериалы Муж с доставкой на дом [01-04 из 04] (2016) SATRip от Files-x Russian Mafia 2.34 GB
Показать сообщения:    

Текущее время: Сегодня 14:54

Часовой пояс: GMT



Вы не можете начинать темы
Вы не можете отвечать на сообщения
Вы не можете редактировать свои сообщения
Вы не можете удалять свои сообщения
Вы не можете голосовать в опросах
Вы не можете прикреплять файлы к сообщениям
Вы не можете скачивать файлы