Ссора в Лукашах (Максим Руф) [1959, комедия, SATRip-AVC]

 
Автор Сообщение

reversefile ®

Пол:

Стаж: 4 года 5 месяцев

Сообщений: 842

Откуда: ReverseFile.org



Награды: Нет

Торрент-статистика

Создавать темы 25-Июл-2014 01:16

[Цитировать]

Ссора в Лукашах- Жанр: комедия
Год выпуска: 1959
Продолжительность: 01:28:07-Режиссёр: Максим Руф-В ролях:
Сергей Плотников, Кирилл Лавров, Леонид Быков, Инга Будкевич, Галина Теплинская, Галина Васильева, Павел Волков, Валентина Телегина, Борис Рыжухин, Георгий Гумилевский
Описание:
Виктор Туз любит петь, но вынужден стать автомехаником. Лиза мечтает о городской жизни, но живет в деревне. Костя Ласточкин отличный механик, но служит в армии и приезжает домой только в отпуск. За всех решает здесь председатель колхоза Трофимов, и от этого в Лукашах часто возникают ссоры.-Исходник | Сэмпл | Кинопоиск-Качество видео: SATRip-AVC, благодарю Cheef mate за материал.
Формат видео: MKV
Видео: x264 (High@L4.1); 696@742x568, Display aspect ratio 1.306:1, 25.000 fps, 2168 Kbps
Аудио: AC-3; 16 bit 48 Khz; 2.0 ch 192 Kbps; CBR

MediaInfo


-

x264 log

avs [info]: 696x568p 16:15 @ 25/1 fps (cfr)
x264 [info]: using SAR=16/15
x264 [info]: using cpu capabilities: MMX2 SSE2Fast SSSE3 SSE4.2
x264 [info]: profile High, level 4.1
x264 [info]: frame I:653 Avg QP:17.79 size: 58000
x264 [info]: frame P:34794 Avg QP:19.82 size: 24597
x264 [info]: frame B:96742 Avg QP:22.62 size: 5574
x264 [info]: consecutive B-frames: 4.9% 1.5% 13.8% 31.9% 18.0% 29.4% 0.4% 0.0% 0.0% 0.0% 0.0% 0.0% 0.0% 0.0% 0.0% 0.0% 0.0%
x264 [info]: mb I I16..4: 3.0% 76.8% 20.2%
x264 [info]: mb P I16..4: 0.3% 6.9% 1.3% P16..4: 31.4% 39.8% 16.3% 2.8% 0.2% skip: 1.1%
x264 [info]: mb B I16..4: 0.0% 0.7% 0.1% B16..8: 31.8% 24.3% 3.6% direct: 6.5% skip:33.0% L0:33.0% L1:41.2% BI:25.8%
x264 [info]: 8x8 transform intra:80.8% inter:48.9%
x264 [info]: direct mvs spatial:99.6% temporal:0.4%
x264 [info]: coded y,uvDC,uvAC intra: 93.8% 79.7% 45.3% inter: 31.5% 20.4% 5.9%
x264 [info]: i16 v,h,dc,p: 18% 19% 3% 60%
x264 [info]: i8 v,h,dc,ddl,ddr,vr,hd,vl,hu: 17% 9% 5% 8% 12% 14% 11% 13% 12%
x264 [info]: i4 v,h,dc,ddl,ddr,vr,hd,vl,hu: 20% 7% 4% 8% 13% 16% 11% 12% 10%
x264 [info]: i8c dc,h,v,p: 33% 24% 25% 18%
x264 [info]: Weighted P-Frames: Y:14.5% UV:3.0%
x264 [info]: ref P L0: 48.4% 13.7% 16.1% 4.4% 3.7% 2.5% 2.5% 1.3% 1.4% 1.1% 1.1% 0.9% 0.9% 0.8% 0.8% 0.6%
x264 [info]: ref B L0: 90.5% 5.7% 1.2% 0.6% 0.4% 0.4% 0.3% 0.2% 0.1% 0.1% 0.1% 0.1% 0.1% 0.1% 0.1%
x264 [info]: ref B L1: 98.5% 1.5%
x264 [info]: kb/s:2168.05
x264 [total]: encoded 132189 frames, 11.73 fps, 2168.05 kb/s
-General
Unique ID : 245790400968785261986577213004173605438 (0xB8E982633EF61471B669BB01EAC8FA3E)
Complete name : Ссора в Лукашах.1959.mkv
Format : Matroska
Format version : Version 2
File size : 1.45 GiB
Duration : 1h 28mn
Overall bit rate : 2 362 Kbps
Movie name : «Ссора в Лукашах»
Encoded date : UTC 2014-07-22 11:05:54
Writing application : mkvmerge v5.8.0 ('No Sleep / Pillow') built on Sep 2 2012 15:37:04
Writing library : libebml v1.2.3 + libmatroska v1.3.0
Comment : SATRip-AVC
Originally released : July 22nd 2014
Encoded by : george$t®
Video
ID : 1
Format : AVC
Format/Info : Advanced Video Codec
Format profile : High@L4.1
Format settings, CABAC : Yes
Format settings, ReFrames : 16 frames
Codec ID : V_MPEG4/ISO/AVC
Duration : 1h 28mn
Bit rate : 2 168 Kbps
Width : 696 pixels
Height : 568 pixels
Display aspect ratio : 4:3
Original display aspect ratio : 4:3
Frame rate mode : Constant
Frame rate : 25.000 fps
Color space : YUV
Chroma subsampling : 4:2:0
Bit depth : 8 bits
Scan type : Progressive
Bits/(Pixel*Frame) : 0.219
Stream size : 1.31 GiB (90%)
Title : Ссора в Лукашах.1959
Writing library : x264 core 130 r2273 b3065e6
Encoding settings : cabac=1 / ref=16 / deblock=1:-2:-2 / analyse=0x3:0x133 / me=umh / subme=11 / psy=1 / psy_rd=0.95:0.00 / mixed_ref=1 / me_range=48 / chroma_me=1 / trellis=2 / 8x8dct=1 / cqm=0 / deadzone=21,11 / fast_pskip=0 / chroma_qp_offset=-2 / threads=12 / lookahead_threads=3 / sliced_threads=0 / nr=0 / decimate=0 / interlaced=0 / bluray_compat=0 / constrained_intra=0 / bframes=16 / b_pyramid=2 / b_adapt=2 / b_bias=0 / direct=3 / weightb=1 / open_gop=0 / weightp=2 / keyint=250 / keyint_min=25 / scenecut=40 / intra_refresh=0 / rc_lookahead=60 / rc=2pass / mbtree=1 / bitrate=2168 / ratetol=1.0 / qcomp=0.70 / qpmin=0 / qpmax=32 / qpstep=4 / cplxblur=20.0 / qblur=0.5 / vbv_maxrate=50000 / vbv_bufsize=62500 / nal_hrd=none / ip_ratio=1.30 / aq=1:0.90
Language : Russian
Default : Yes
Forced : No
Color primaries : BT.601 PAL
Transfer characteristics : BT.470 System B, BT.470 System G
Matrix coefficients : BT.601
Audio
ID : 2
Format : AC-3
Format/Info : Audio Coding 3
Mode extension : CM (complete main)
Format settings, Endianness : Big
Codec ID : A_AC3
Duration : 1h 28mn
Bit rate mode : Constant
Bit rate : 192 Kbps
Channel(s) : 2 channels
Channel positions : Front: L R
Sampling rate : 48.0 KHz
Bit depth : 16 bits
Compression mode : Lossy
Stream size : 121 MiB (8%)
Title : AC-3; 16 bit 48 Khz; 2ch 192 Kbps; CBR
Language : Russian
Default : Yes
Forced : No
[Профиль] [ЛС]

Создавать темы 06-Авг-2015 22:06 (спустя 1 год)

Топик был перенесен из форума Кино СССР в форум Кино СССР
sergej644
 
Показать сообщения:    

Текущее время: Сегодня 14:25

Часовой пояс: GMT



Вы не можете начинать темы
Вы не можете отвечать на сообщения
Вы не можете редактировать свои сообщения
Вы не можете удалять свои сообщения
Вы не можете голосовать в опросах
Вы не можете прикреплять файлы к сообщениям
Вы не можете скачивать файлы