Срочно! Ищу мужа (2011) HDTVRip от ivandubskoj

 
Автор Сообщение

sergej644 ®

Пол:

Стаж: 4 года 11 месяцев

Сообщений: 6040

Откуда: Soviet Union



Награды: Нет

Торрент-статистика

Создавать темы 06-Дек-2014 19:09

[Цитировать]

Информация о фильме
Название: Срочно! Ищу мужа
Год выхода: 2011
Жанр: Мелодрама
Режиссёр: Алина Чеботарева
В ролях: Антон Макарский, Марина Александрова, Римма Зюбина, Олег Масленников, Владимир Гладкий, Нина Антонова, Олег Савкин, Янина Соколова, Сергей Бондарчук
О фильме:
Милая девушка Лена Лучкина живёт в маленьком городке, работает врачом в поликлинике. Мать Лены мечтает выдать дочь замуж и даже нашла для неё подходящую партию. Сергей Романович не молод, зато у него приличный доход и серьёзные намерения. Доводы Лены против этого брака мать и слышать не хочет. И тогда Лена показывает паспорт, а там - штамп и имя мужа - Антон Викторович Набоков. Тем временем Антон Викторович Набоков после окончания МГИМО ждёт назначения на дипслужбу за рубеж, о котором хлопочет его отец - видный политик. И когда назначение уже почти подписано, отец узнаёт, что Антон женат!

Страна: Россия
Студия: Кинокомпания "УПС"
Продолжительность: 01:32:18
Перевод: Не требуется
Файл
Кодек: XviD
Качество: HDTVRip [Исходник: HDTV (1080i)]
Видео: XviD, 2086 Кбит/с, 720x400, 25 кадр/с
Звук: Русский, Dolby AC3, 48000 Гц, 192 Кбит/с, 2 канала (Стерео)
Субтитры: Нет

MediaInfo

General
Complete name : Srochno.Ischu.muzha.2011.HDTVRip.avi
Format : AVI
Format/Info : Audio Video Interleave
File size : 1.47 GiB
Duration : 1h 32mn
Overall bit rate : 2 286 Kbps
Movie name : Срочно! Ищу мужа (2011) HDTVRip
Genre : Мелодрама
Recorded date : 06.12.2014
Writing application : VirtualDubMod 1.5.10.3 (build 2550/release)
Writing library : VirtualDubMod build 2550/release
Copyright : rip by ivandubskoj
Video
ID : 0
Format : MPEG-4 Visual
Format profile : Advanced Simple@L5
Format settings, BVOP : 1
Format settings, QPel : No
Format settings, GMC : No warppoints
Format settings, Matrix : Default (MPEG)
Codec ID : XVID
Codec ID/Hint : XviD
Duration : 1h 32mn
Bit rate : 2 086 Kbps
Width : 720 pixels
Height : 400 pixels
Display aspect ratio : 16:9
Frame rate : 25.000 fps
Color space : YUV
Chroma subsampling : 4:2:0
Bit depth : 8 bits
Scan type : Progressive
Compression mode : Lossy
Bits/(Pixel*Frame) : 0.290
Stream size : 1.34 GiB (91%)
Writing library : XviD 73
Audio
ID : 1
Format : AC-3
Format/Info : Audio Coding 3
Mode extension : CM (complete main)
Codec ID : 2000
Duration : 1h 32mn
Bit rate mode : Constant
Bit rate : 192 Kbps
Channel(s) : 2 channels
Channel positions : Front: L R
Sampling rate : 48.0 KHz
Bit depth : 16 bits
Compression mode : Lossy
Stream size : 127 MiB (8%)
Alignment : Split accross interleaves
Interleave, duration : 64 ms (1.60 video frames)
Interleave, preload duration : 500 ms
Title : Russian

Скриншоты

Автор рипа - ivandubskoj
[Профиль] [ЛС]

Создавать темы 06-Авг-2015 22:17 (спустя 8 месяцев)

Топик был перенесен из форума Фильмы до 2014 года в форум Фильмы до 2012 года
sergej644
 
Показать сообщения:    

Текущее время: Сегодня 02:44

Часовой пояс: GMT



Вы не можете начинать темы
Вы не можете отвечать на сообщения
Вы не можете редактировать свои сообщения
Вы не можете удалять свои сообщения
Вы не можете голосовать в опросах
Вы не можете прикреплять файлы к сообщениям
Вы не можете скачивать файлы