Срок жизни / Term Life (2016) BDRemux 1080p | L

 
Автор Сообщение

достали все ®

Пол:

Стаж: 1 год 8 месяцев

Сообщений: 6545



Награды: 12 (Подробнее)

Mega Seeder 5 (Количество: 1) Mega Seeder 2 (Количество: 1) Top Releaser 2 (Количество: 1)
Торрент-статистика

Создавать темы 27-Июн-2016 21:52

[Цитировать]

Информация о фильме
Название: Срок жизни
Оригинальное название: Term Life
Год выхода: 2016
Жанр: Драма, криминал
Режиссер: Питер Биллингсли
В ролях: Винс Вон, Хейли Стайнфелд, Джонатан Бэнкс, Джон Фавро, Тараджи П. Хенсон, Аннабет Гиш, Билл Пэкстон, Терренс Ховард, Мануэль Рульфо, Хорди Молья
О фильме:
Фильм рассказывает о персонаже по имени Ник Бэрроу, который планирует кражи, а потом продаёт эти проекты тому, кто больше заплатит. Но наступает чёрный день - один из замыслов Ника с треском проваливается, и теперь его смерти жаждут все, начиная с главарей мафии и заканчивая оборотнями в погонах. Поняв, что от судьбы не убежишь, герой решает сделать напоследок что-то хорошее - он страхует жизнь на миллион долларов, чтобы после смерти обеспечить свою дочь. Не учитывает Ник только одного - страховка начнет действовать лишь через 21 день, в течение которых герою необходимо оставаться в живых. А это в его ситуации совсем не просто.

Страна: США
Студия: Palm-Star Entertainment, PenLife Media, Wild West Picture Show Productions
Продолжительность: 01:31:50
Перевод: Любительский многоголосый (закадровый) | Parovoz Production
Файл
Кодек: MPEG-4
Качество: BDRemux 1080p
Видео: 1920x1080, 35.1 Mbit/s, 23.976 fps
Звук:
Аудио #01: 48 kHz, AC3, 2.0, 384 Kbps | Любительский многоголосый (закадровый), Parovoz Production |
Аудио #02: 48 kHz, DTS-HD MA, 5.1, 3708 kbps | Оригинал |
Субтитры: Русские, английские
Автор релиза:

MI

General
Unique ID : 194761653925322154377109803295694788844 (0x9285BAE9E2CCC43E899BD9737B9218EC)
Complete name : F:VideoTerm.Life.2016.BDREMUX.1080p.ExKinoRay.mkv
Format : Matroska
Format version : Version 4 / Version 2
File size : 25.4 GiB
Duration : 1h 32mn
Overall bit rate mode : Variable
Overall bit rate : 39.2 Mbps
Movie name : Term.Life.2016.BDREMUX.1080p.ExKinoRay
Encoded date : UTC 2016-06-27 20:52:43
Writing application : mkvmerge v8.3.0 ('Over the Horizon') 64bit
Writing library : libebml v1.3.1 + libmatroska v1.4.2
Video
ID : 1
Format : AVC
Format/Info : Advanced Video Codec
Format profile : High@L4.1
Format settings, CABAC : Yes
Format settings, ReFrames : 4 frames
Codec ID : V_MPEG4/ISO/AVC
Duration : 1h 32mn
Bit rate mode : Variable
Bit rate : 35.1 Mbps
Maximum bit rate : 37.0 Mbps
Width : 1 920 pixels
Height : 1 080 pixels
Display aspect ratio : 16:9
Frame rate mode : Constant
Frame rate : 23.976 (24000/1001) fps
Color space : YUV
Chroma subsampling : 4:2:0
Bit depth : 8 bits
Scan type : Progressive
Bits/(Pixel*Frame) : 0.705
Stream size : 22.7 GiB (90%)
Title : Term.Life.2016.BDREMUX.1080p.ExKinoRay.***selezen***
Language : English
Default : Yes
Forced : No
Audio #1
ID : 2
Format : AC-3
Format/Info : Audio Coding 3
Mode extension : CM (complete main)
Format settings, Endianness : Big
Codec ID : A_AC3
Duration : 1h 32mn
Bit rate mode : Constant
Bit rate : 384 Kbps
Channel(s) : 2 channels
Channel positions : Front: L R
Sampling rate : 48.0 KHz
Frame rate : 31.250 fps (1536 spf)
Compression mode : Lossy
Delay relative to video : 96ms
Stream size : 255 MiB (1%)
Title : MVO [Parovoz Production]
Language : Russian
Default : Yes
Forced : No
Audio #2
ID : 3
Format : DTS
Format/Info : Digital Theater Systems
Format profile : MA / Core
Mode : 16
Format settings, Endianness : Big
Codec ID : A_DTS
Duration : 1h 32mn
Bit rate mode : Variable / Constant
Bit rate : 3 708 Kbps / 1 509 Kbps
Channel(s) : 6 channels
Channel positions : Front: L C R, Side: L R, LFE
Sampling rate : 48.0 KHz
Frame rate : 93.750 fps (512 spf)
Bit depth : 24 bits
Compression mode : Lossless / Lossy
Stream size : 2.40 GiB (9%)
Title : Original
Language : English
Default : No
Forced : No
Text #1
ID : 4
Format : UTF-8
Codec ID : S_TEXT/UTF8
Codec ID/Info : UTF-8 Plain Text
Duration : 1h 31mn
Bit rate : 97 bps
Count of elements : 1282
Stream size : 65.7 KiB (0%)
Title : Full
Language : Russian
Default : No
Forced : No
Text #2
ID : 5
Format : UTF-8
Codec ID : S_TEXT/UTF8
Codec ID/Info : UTF-8 Plain Text
Duration : 1h 26mn
Bit rate : 60 bps
Count of elements : 907
Stream size : 38.7 KiB (0%)
Title : Full
Language : English
Default : No
Forced : No
Text #3
ID : 6
Format : UTF-8
Codec ID : S_TEXT/UTF8
Codec ID/Info : UTF-8 Plain Text
Duration : 1h 29mn
Bit rate : 68 bps
Count of elements : 1451
Stream size : 44.5 KiB (0%)
Title : SDH
Language : English
Default : No
Forced : No
Menu
00:00:00.000 : en:00:00:00.000
00:07:30.241 : en:00:07:30.241
00:13:04.951 : en:00:13:04.951
00:19:25.623 : en:00:19:25.623
00:24:38.811 : en:00:24:38.811
00:28:01.680 : en:00:28:01.680
00:32:49.467 : en:00:32:49.467
00:37:35.044 : en:00:37:35.044
00:42:13.197 : en:00:42:13.197
00:46:56.981 : en:00:46:56.981
00:50:42.456 : en:00:50:42.456
00:55:20.067 : en:00:55:20.067
00:58:37.305 : en:00:58:37.305
01:03:44.112 : en:01:03:44.112
01:07:57.949 : en:01:07:57.949
01:14:37.848 : en:01:14:37.848
01:19:45.781 : en:01:19:45.781
01:21:29.635 : en:01:21:29.635
01:25:30.083 : en:01:25:30.083
01:27:32.205 : en:01:27:32.205

Скриншоты

[Профиль] [ЛС]
Кто просматривает тему:

Показать сообщения:    

Текущее время: Сегодня 02:45

Часовой пояс: GMT



Вы не можете начинать темы
Вы не можете отвечать на сообщения
Вы не можете редактировать свои сообщения
Вы не можете удалять свои сообщения
Вы не можете голосовать в опросах
Вы не можете прикреплять файлы к сообщениям
Вы не можете скачивать файлы