Среда, 04:45 / Tetarti 04:45 (2015) DVDRip | L2

 
Автор Сообщение

достали все ®

Пол:

Стаж: 1 год 8 месяцев

Сообщений: 6554



Награды: 12 (Подробнее)

Mega Seeder 4 (Количество: 1) Mega Seeder 3 (Количество: 1) Mega Seeder 2 (Количество: 1)
Торрент-статистика

Создавать темы 22-Сен-2016 04:30

[Цитировать]

Страна: Греция, Германия, Израиль
Производство: CL Productions, Eurimages Council of Europe, Faliro House Productions See more
Жанр: Триллер
Год выпуска: 2015
Продолжительность: 01:51:35
Перевод: Любительский двухголосый (Студия Колобок)
Режиссер: Алексис Алексиу
В ролях: Стелиос Майнас, Димитрис Цумакис, Адам Боусдукс, Гиоргос Симеонидис, Мария Нафпльоту, Мими Брэнеску, Кристина Дендрину
Описание: Прямо перед Рождеством Стелиос Димитракопулус, владелец ночного клуба в Афинах, понимает, что его жена хочет развестись. У него есть 32 часа, чтобы разобраться, почему их отношения скатились от плохих к невыносимым. 32 часа, чтобы переоценить свои шансы. 32 часа, чтобы защитить свой бизнес и будущее своей семьи. 32 часа, чтобы, наконец, победить своих врагов и отомстить.
Исходник: DVD9 R2
Тип релиза: DVDRip
Контейнер: AVI
Видео: 704x288 (2.44:1), 25 fps, XviD build 50 ~1417 kbps avg, 0.28 bit/pixel
Аудио 1: 48 kHz, AC3 Dolby Digital, 2/0 (L,R) ch, ~192 kbps (русский)

MediaInfo

Общее
Полное имя : D:ААА2среда.avi
Формат : AVI
Формат/Информация : Audio Video Interleave
Размер файла : 1,26 Гбайт
Продолжительность : 1 ч. 51 м.
Общий поток : 1613 Кбит/сек
Программа кодирования : VirtualDubMod 1.5.10.2 (build 2540/release)
Библиотека кодирования : VirtualDubMod build 2540/release
Видео
Идентификатор : 0
Формат : MPEG-4 Visual
Профиль формата : Advanced Simple@L5
Параметр BVOP формата : 1
Параметр QPel формата : Нет
Параметр GMC формата : Без точки перехода
Параметр матрицы формата : Default (MPEG)
Идентификатор кодека : XVID
Идентификатор кодека/Подсказка : XviD
Продолжительность : 1 ч. 51 м.
Битрейт : 1418 Кбит/сек
Ширина : 704 пикселя
Высота : 288 пикселей
Соотношение сторон : 2,40:1
Частота кадров : 25,000 кадров/сек
Цветовое пространство : YUV
Субдискретизация насыщенности : 4:2:0
Битовая глубина : 8 бит
Тип развёртки : Прогрессивная
Метод сжатия : С потерями
Бит/(Пиксели*Кадры) : 0.280
Размер потока : 1,11 Гбайт (88%)
Библиотека кодирования : XviD 1.2.1 (UTC 2008-12-04)
Аудио
Идентификатор : 1
Формат : AC-3
Формат/Информация : Audio Coding 3
Идентификатор кодека : 2000
Продолжительность : 1 ч. 48 м.
Вид битрейта : Постоянный
Битрейт : 192 Кбит/сек
Каналы : 2 канала
Частота : 48,0 КГц
Метод сжатия : С потерями
Размер потока : 148 Мбайт (12%)
Выравнивание : Разделение по промежуткам
Продолжительность промежутка : 41 мс. (1,03 видеокадр)
Время предзагрузки промежутка : 500 мс.

Скриншоты

Релиз: Рип sonnyb
[Профиль] [ЛС]
Кто просматривает тему:

Показать сообщения:    

Текущее время: Сегодня 20:59

Часовой пояс: GMT



Вы не можете начинать темы
Вы не можете отвечать на сообщения
Вы не можете редактировать свои сообщения
Вы не можете удалять свои сообщения
Вы не можете голосовать в опросах
Вы не можете прикреплять файлы к сообщениям
Вы не можете скачивать файлы