Спящий голос / La voz dormida (2011) BDRip-AVC от MediaClub | L1

 
Автор Сообщение

Russian Mafia ®

Пол:

Стаж: 1 год 8 месяцев

Сообщений: 4256



Награды: 10 (Подробнее)

Mega Seeder 1 (Количество: 1) За внесенный вклад в развитие сайта (Количество: 1) Mega Seeder 4 (Количество: 1)
Торрент-статистика

Создавать темы 07-Окт-2016 11:29

[Цитировать]

Информация о фильме
Название: Спящий голос
Оригинальное название: La voz dormida
Год выхода: 2011
Жанр: Драма, военный
Режиссер: Бенито Самбрано
В ролях: Инма Куэста, Мария Леон, Марк Клотет, Даниэль Ольгин, Ана Вахенер, Суси Санчес, Берта Охеа, Лола Касамайор, Анхела Кремонте, Ампаро Вега Леон, Чаро Сапардьель, Аранча Арангурен, Тереса Кало, Бегонья Маэстре, Хесус Ногуэро
О фильме:
История двух сестёр в смутный период сразу же после завершения гражданской войны в Испании. Младшая из них Пепита, простоватая девушка из окрестностей Кордовы, отправляется в Мадрид, чтобы быть рядом со своей сестрой Гортензией, которая находится в тюрьме и ждёт ребёнка. За участие в движении Сопротивления и связь с его харизматичным лидером Фелипе Гортензия осуждена на смерть, но исполнение приговора отложено до родов. Пепита устраивается горничной в богатом доме и, в тоже время, связывается с прячущимися в горах повстанцами. Там она влюбляется в одного из их лидеров красавца Паулино. Пепита стремится любой ценой оттянуть казнь, тогда как Гортензия со своими сокамерницами пытаются не допустить того, чтобы её родившийся ребёнок был отдан в приют...

Страна: Испания
Студия: Audiovisual Aval SGR, Maestranza Films S.L, Warner Bros.
Продолжительность: 02:03:19
Перевод: Любительский одноголосый закадровый
Файл
Кодек: h.264
Качество: BDRip-AVC
Видео: MPEG-4 AVC, 2990 Кбит/с, 1024x432, 24.000 кадр/с
Звук:
Русский (AC3, 6 ch, 384 Кбит/с) / Любительский одноголосый (Serg Tex)
Испанский (AC3, 6 ch, 384 Кбит/с)
Субтитры: Русские, английские
Семпл

О релизе

Автор релиза - Silverok, За Bly-ray спасибо flaSI-I
Субтитры: S_TEXT/UTF8 (SRT) - Русские, английские

MI

x264 [info]: frame I:1567 Avg QP:15.18 size: 72215
x264 [info]: frame P:36758 Avg QP:17.83 size: 30150
x264 [info]: frame B:139256 Avg QP:19.87 size: 11085
General
Unique ID : 243984685778615996572900324283979549250 (0xB78DBDC155898F5EAF9175CECA324A42)
Complete name : D:uTorrentSpjastsiy.golos.2011.BDRip-AVC.MediaClub.mkv
Format : Matroska
Format version : Version 4 / Version 2
File size : 3.24 GiB
Duration : 2 h 3 min
Overall bit rate : 3 760 kb/s
Encoded date : UTC 2016-10-07 07:47:08
Writing application : mkvmerge v9.4.2 ('So High') 64bit
Writing library : libebml v1.3.4 + libmatroska v1.4.5
Video
ID : 1
Format : AVC
Format/Info : Advanced Video Codec
Format profile : High@L4.1
Format settings, CABAC : Yes
Format settings, ReFrames : 10 frames
Codec ID : V_MPEG4/ISO/AVC
Duration : 2 h 3 min
Bit rate : 2 990 kb/s
Width : 1 024 pixels
Height : 432 pixels
Display aspect ratio : 2.40:1
Frame rate mode : Constant
Frame rate : 24.000 FPS
Color space : YUV
Chroma subsampling : 4:2:0
Bit depth : 8 bits
Scan type : Progressive
Bits/(Pixel*Frame) : 0.282
Stream size : 2.58 GiB (80%)
Title : BDRip by Silverok
Writing library : x264 core 148 r2638 7599210
Encoding settings : cabac=1 / ref=10 / deblock=1:-3:-3 / analyse=0x3:0x113 / me=umh / subme=11 / psy=1 / psy_rd=1.00:0.10 / mixed_ref=1 / me_range=48 / chroma_me=1 / trellis=2 / 8x8dct=1 / cqm=0 / deadzone=21,11 / fast_pskip=0 / chroma_qp_offset=-3 / threads=12 / lookahead_threads=3 / sliced_threads=0 / nr=0 / decimate=0 / interlaced=0 / bluray_compat=0 / constrained_intra=0 / bframes=11 / b_pyramid=2 / b_adapt=2 / b_bias=0 / direct=3 / weightb=1 / open_gop=0 / weightp=2 / keyint=240 / keyint_min=24 / scenecut=40 / intra_refresh=0 / rc_lookahead=40 / rc=2pass / mbtree=0 / bitrate=2990 / ratetol=1.0 / qcomp=0.60 / qpmin=0 / qpmax=69 / qpstep=4 / cplxblur=20.0 / qblur=0.5 / vbv_maxrate=62500 / vbv_bufsize=78125 / nal_hrd=none / filler=0 / ip_ratio=1.40 / pb_ratio=1.30 / aq=1:1.00
Default : Yes
Forced : No
Audio #1
ID : 2
Format : AC-3
Format/Info : Audio Coding 3
Mode extension : CM (complete main)
Format settings, Endianness : Big
Codec ID : A_AC3
Duration : 2 h 3 min
Bit rate mode : Constant
Bit rate : 384 kb/s
Channel(s) : 6 channels
Channel positions : Front: L C R, Side: L R, LFE
Sampling rate : 48.0 kHz
Frame rate : 31.250 FPS (1536 spf)
Compression mode : Lossy
Stream size : 339 MiB (10%)
Title : Одноголосый закадровый (Serg Tex)
Default : Yes
Forced : No
Audio #2
ID : 3
Format : AC-3
Format/Info : Audio Coding 3
Mode extension : CM (complete main)
Format settings, Endianness : Big
Codec ID : A_AC3
Duration : 2 h 3 min
Bit rate mode : Constant
Bit rate : 384 kb/s
Channel(s) : 6 channels
Channel positions : Front: L C R, Side: L R, LFE
Sampling rate : 48.0 kHz
Frame rate : 31.250 FPS (1536 spf)
Compression mode : Lossy
Stream size : 339 MiB (10%)
Language : Spanish
Default : No
Forced : No
Text #1
ID : 4
Format : UTF-8
Codec ID : S_TEXT/UTF8
Codec ID/Info : UTF-8 Plain Text
Duration : 1 h 58 min
Bit rate : 98 b/s
Count of elements : 1738
Stream size : 86.0 KiB (0%)
Language : Russian
Default : Yes
Forced : No
Text #2
ID : 5
Format : UTF-8
Codec ID : S_TEXT/UTF8
Codec ID/Info : UTF-8 Plain Text
Duration : 1 h 58 min
Bit rate : 58 b/s
Count of elements : 1739
Stream size : 50.9 KiB (0%)
Language : English
Default : No
Forced : No

Скриншоты

[Профиль] [ЛС]
Показать сообщения:    

Текущее время: Сегодня 22:27

Часовой пояс: GMT



Вы не можете начинать темы
Вы не можете отвечать на сообщения
Вы не можете редактировать свои сообщения
Вы не можете удалять свои сообщения
Вы не можете голосовать в опросах
Вы не можете прикреплять файлы к сообщениям
Вы не можете скачивать файлы