Спящая красавица / Dornröschen / Dornroeschen (Оливер Дикманн / Oliver Dieckmann) [2009, Германия, детский, семейный, сказка, HDTVRip] MVO (ТВЦ) + Dub (Карусель) + Original Ger

 
Автор Сообщение

TorrentFilm ®

Пол:

Стаж: 2 года

Сообщений: 7741



Награды: Нет

Торрент-статистика

Создавать темы 10-Янв-2016 00:10

[Цитировать]

Спящая красавица / Dornröschen / Dornroeschen
Страна: Германия
Жанр: детский, семейный, сказка
Год выпуска: 2009
Продолжительность: 00:58:38
Перевод: Профессиональный (многоголосый закадровый) компания "Игмар"
Перевод 2: Профессиональный (дублированный) по заказу ЗАО «Первый канал. Всемирная сеть»
Cубтитры: нет
Оригинальная аудиодорожка: немецкий
Режиссер: Оливер Дикманн / Oliver Dieckmann
В ролях: Лотте Флак, Франсуа Гёске, Ханнелоре Эльснер, Анна Лоос, Мартин Файфель, Михаэль Ханеманн, Никлас Остерло, Олаф Крэтке, Стив Шигети, Тереза Вильсмайер
Описание: Экранизация сказки братьев Гримм. Когда старая колдунья прокляла юную прекрасную принцессу, королевское семейство сделало все возможное, чтобы предотвратить трагедию. Но в день пятнадцатилетия королевской дочери предсказание все же сбылось: девушка уколола палец веретеном и заснула на целых сто лет. Развеять колдовские чары и пробудить принцессу ото сна сможет лишь прекрасный юноша, прошедший через множество испытаний.
Доп. информация: Рип с канала 1HD. Из видеоряда удален логотип канала и прочие посторонние элементы.
Сэмпл: http://multi-up.com/1083206
Качество видео: HDTVRip
Формат видео: AVI
Видео: MPEG4, XviD, 720x400 (16:9), 25.000 fps, 2 046 Kbps (0.284 bit/pixel)
Аудио: AC-3, 48.0 KHz, 2 ch, 192 Kbps, CBR - mvo
Аудио 2: MP3, 48.0 KHz, 2 ch, 128 Kbps, CBR - dub
Аудио 3: AC-3, 48.0 KHz, 2 ch, 224 Kbps, CBR - ger

MediaInfo

Общее
Полное имя : N:\Спящая красавица.avi
Формат : AVI
Формат/Информация : Audio Video Interleave
Размер файла : 1,07 Гбайт
Продолжительность : 58 м.
Общий поток : 2609 Кбит/сек
Название фильма : Спящая красавица / Dornroschen (2009)
Программа кодирования : VirtualDubMod 1.5.10.2 (build 2540/release)
Библиотека кодирования : VirtualDubMod build 2540/release
Авторское право : miha2154
Видео
Идентификатор : 0
Формат : MPEG-4 Visual
Профиль формата : Advanced Simple@L5
Параметр BVOP формата : 1
Параметр QPel формата : Нет
Параметр GMC формата : Без точки перехода
Параметр матрицы формата : Выборочная
Идентификатор кодека : XVID
Идентификатор кодека/Подсказка : XviD
Продолжительность : 58 м.
Битрейт : 2046 Кбит/сек
Ширина : 720 пикселей
Высота : 400 пикселей
Соотношение сторон : 16:9
Частота кадров : 25,000 кадров/сек
Цветовое пространство : YUV
Субдискретизация насыщенности : 4:2:0
Битовая глубина : 8 бит
Тип развёртки : Прогрессивная
Метод сжатия : С потерями
Бит/(Пиксели*Кадры) : 0.284
Размер потока : 858 Мбайт (78%)
Библиотека кодирования : XviD 65
Аудио #1
Идентификатор : 1
Формат : AC-3
Формат/Информация : Audio Coding 3
Расширение режима : CM (complete main)
Параметр Endianness формата : Big
Идентификатор кодека : 2000
Продолжительность : 58 м.
Вид битрейта : Постоянный
Битрейт : 192 Кбит/сек
Каналы : 2 канала
Расположение каналов : Front: L R
Частота : 48,0 КГц
Частота кадров : 31,250 кадров/сек (1536 spf)
Метод сжатия : С потерями
Размер потока : 80,5 Мбайт (7%)
Выравнивание : Разделение по промежуткам
Продолжительность промежутка : 40 мс. (1,00 видеокадр)
Время предзагрузки промежутка : 500 мс.
Заголовок : Профессиональный (многоголосый закадровый) ТВЦ
Аудио #2
Идентификатор : 2
Формат : MPEG Audio
Версия формата : Version 1
Профиль формата : Layer 3
Режим : Joint stereo
Расширение режима : MS Stereo
Идентификатор кодека : 55
Идентификатор кодека/Подсказка : MP3
Продолжительность : 58 м.
Вид битрейта : Постоянный
Битрейт : 128 Кбит/сек
Каналы : 2 канала
Частота : 48,0 КГц
Метод сжатия : С потерями
Размер потока : 53,7 Мбайт (5%)
Выравнивание : Соединение по промежуткам
Продолжительность промежутка : 40 мс. (1,00 видеокадр)
Время предзагрузки промежутка : 504 мс.
Заголовок : Профессиональный (полное дублирование) Карусель
Аудио #3
Идентификатор : 3
Формат : AC-3
Формат/Информация : Audio Coding 3
Расширение режима : CM (complete main)
Параметр Endianness формата : Big
Идентификатор кодека : 2000
Продолжительность : 58 м.
Вид битрейта : Постоянный
Битрейт : 224 Кбит/сек
Каналы : 2 канала
Расположение каналов : Front: L R
Частота : 48,0 КГц
Частота кадров : 31,250 кадров/сек (1536 spf)
Метод сжатия : С потерями
Размер потока : 93,9 Мбайт (9%)
Выравнивание : Разделение по промежуткам
Продолжительность промежутка : 40 мс. (1,00 видеокадр)
Время предзагрузки промежутка : 500 мс.
Заголовок : Немецкий

Скриншоты


[Профиль] [ЛС]

Создавать темы 12-Июн-2016 07:56 (спустя 5 месяцев 2 дня)

Топик был перенесен из форума Фильмы 2011 года в форум Фильмы 2009 года
Russian Mafia
 
Показать сообщения:    

Текущее время: Сегодня 08:16

Часовой пояс: GMT



Вы не можете начинать темы
Вы не можете отвечать на сообщения
Вы не можете редактировать свои сообщения
Вы не можете удалять свои сообщения
Вы не можете голосовать в опросах
Вы не можете прикреплять файлы к сообщениям
Вы не можете скачивать файлы