Спортивная ходьба / Kapgang / Racewalking (Нильс Арден Оплев / Niels Arden Oplev) [2014, Дания, Драма, DVDRip] VO + Sub Rus + Original Dan

 
Автор Сообщение

TorrentFilm ®

Пол:

Стаж: 1 год 11 месяцев

Сообщений: 7741



Награды: Нет

Торрент-статистика

Создавать темы 29-Дек-2014 00:15

[Цитировать]

Спортивная ходьба / Kapgang / Racewalking
Страна: Дания
Жанр: Драма
Год выпуска: 2014
Продолжительность: 01:47:35
Перевод: Одноголосый закадровый
Cубтитры: русские
Оригинальная аудиодорожка: датский
Режиссер: Нильс Арден Оплев / Niels Arden Oplev
В ролях: Виллас Бёэ / Villads Bøye, Фредерик Винтер Расмуссен / Frederik Winther Rasmussen, Крака Донслунн Нильсен / Kraka Donslund Nielsen, Сидсе Бабетт Кнудсен / Sidse Babett Knudsen, Андерс Бертельсен / Anders W. Berthelsen, Йенс Мальте Несбю / Jens Malthe Næsby, Курт Раун / Kurt Ravn, Бодиль Лассен / Bodil Lassen и другие.
Описание: Фильм снят по одноимённому роману-автобиографии датского драматурга Мортена Киркскоу, в котором отображены события двух недель 1976 года. В провинциальном датском городке живёт Мартин Эстергорд, ему четырнадцать лет, он одарённый спортсмен и вскоре его ждёт конфирмация - впереди взрослая жизнь. Однако, повзрослеть ему пришлось раньше: внезапно умирает его мать. Брат и отец убиты горем и де-факто старшим в семье становится Мартин, на его плечи ложится забота о доме, об отце и брате, о предстоящей конфирмации. У Мартина лишь два близких друга - Ким и Кристина - у которых он ищет утешение и поддержку. Когда дружба перерастает в любовь, Мартину предстоит сделать непростой выбор.
Доп. информация: Фильм взят отсюда http://torrentfilm.net/forum/viewtopic.php?t=4892773
Сэмпл: http://multi-up.com/1021109
Качество видео: DVDRip
Формат видео: AVI
Видео: 720x304 (2.37:1), 24.000 fps, XviD MPEG-4 ~1789 kbps avg, 0.34 bit/pixel
Аудио 1: 48 kHz, MPEG Layer 3, 2 ch, ~192.00 kbps avg(Русский)
Аудио 2: 48 kHz, MPEG Layer 3, 2 ch, ~192.00 kbps avg(Датский)
Формат субтитров: softsub (SRT)
Доп. информация о субтитрах: Русские внешние (aimenf)

MediaInfo

Общее
Полное имя : F:\С моей озвучкой\Спортивная ходьба\Kapgang.avi
Формат : AVI
Формат/Информация : Audio Video Interleave
Размер файла : 1,64 Гбайт
Продолжительность : 1 ч. 47 м.
Общий поток : 2188 Кбит/сек
Программа кодирования : VirtualDubModRus 1.5.10.2 (build 2542/release)
Библиотека кодирования : VirtualDubMod build 2542/release
Видео
Идентификатор : 0
Формат : MPEG-4 Visual
Профиль формата : Advanced Simple@L5
Параметр BVOP формата : 2
Параметр QPel формата : Нет
Параметр GMC формата : Без точки перехода
Параметр матрицы формата : Default (H.263)
Режим смешивания : Сжатый битовый поток
Идентификатор кодека : XVID
Идентификатор кодека/Подсказка : XviD
Продолжительность : 1 ч. 47 м.
Битрейт : 1790 Кбит/сек
Ширина : 720 пикселей
Высота : 304 пикселя
Соотношение сторон : 2,35:1
Частота кадров : 24,000 кадра/сек
Цветовое пространство : YUV
Субдискретизация насыщенности : 4:2:0
Битовая глубина : 8 бит
Тип развёртки : Прогрессивная
Метод сжатия : С потерями
Бит/(Пиксели*Кадры) : 0.341
Размер потока : 1,35 Гбайт (82%)
Библиотека кодирования : XviD 64
Аудио #1
Идентификатор : 1
Формат : MPEG Audio
Версия формата : Version 1
Профиль формата : Layer 3
Режим : Joint stereo
Расширение режима : MS Stereo
Идентификатор кодека : 55
Идентификатор кодека/Подсказка : MP3
Продолжительность : 1 ч. 47 м.
Вид битрейта : Постоянный
Битрейт : 192 Кбит/сек
Каналы : 2 канала
Частота : 48,0 КГц
Метод сжатия : С потерями
Размер потока : 148 Мбайт (9%)
Выравнивание : Соединение по промежуткам
Продолжительность промежутка : 42 мс. (1,00 видеокадр)
Время предзагрузки промежутка : 504 мс.
Библиотека кодирования : LAME3.96
Аудио #2
Идентификатор : 2
Формат : MPEG Audio
Версия формата : Version 1
Профиль формата : Layer 3
Режим : Joint stereo
Идентификатор кодека : 55
Идентификатор кодека/Подсказка : MP3
Продолжительность : 1 ч. 47 м.
Вид битрейта : Постоянный
Битрейт : 192 Кбит/сек
Каналы : 2 канала
Частота : 48,0 КГц
Метод сжатия : С потерями
Размер потока : 148 Мбайт (9%)
Выравнивание : Разделение по промежуткам
Продолжительность промежутка : 42 мс. (1,00 видеокадр)
Время предзагрузки промежутка : 500 мс.

Скриншоты

[Профиль] [ЛС]
Кто просматривает тему:

Форум Тема Автор Размер
Фильмы (DVD 5/9) Leгeндa №17 (Nикoлaй Leбeдeв) [2013, Россия, спорт, драма, биография, DVD9] R5 Original Rus TorrentFilm 7.06 GB
XXXI Летние Олимпийские игры. Рио-де-Жанейро 2016 (Бразилия) XXXI Летние Олимпийские Игры. Рио-де-Жанейро (Бразилия). Велоспорт. BMX. Женщины. Квалификация [17.08] (2016) IPTVRip-AVC BOSS 804 MB
XXXI Летние Олимпийские игры. Рио-де-Жанейро 2016 (Бразилия) XXXI Летние Олимпийские Игры. Рио-де-Жанейро (Бразилия). Велоспорт. BMX. Женщины. Мужчины. Финалы [19.08] (2016) IPTVRip 720p ODESSA 669 MB
XXXI Летние Олимпийские игры. Рио-де-Жанейро 2016 (Бразилия) XXXI Летние Олимпийские Игры. Рио-де-Жанейро (Бразилия). Велоспорт. BMX. Мужчины. 1/4 финала [18.08] (2016) IPTVRip 720p ODESSA 2.24 GB
XXXI Летние Олимпийские игры. Рио-де-Жанейро 2016 (Бразилия) XXXI Летние Олимпийские Игры. Рио-де-Жанейро (Бразилия). Велоспорт. BMX. Мужчины. Квалификация [17.08] (2016) IPTVRip-AVC BOSS 1.29 GB
XXXI Летние Олимпийские игры. Рио-де-Жанейро 2016 (Бразилия) XXXI Летние Олимпийские Игры. Рио-де-Жанейро (Бразилия). Велоспорт. Женщины. Шоссе. Групповая гонка [07.08] (2016) IPTVRip-AVC ODESSA 1.59 GB
XXXI Летние Олимпийские игры. Рио-де-Жанейро 2016 (Бразилия) XXXI Летние Олимпийские Игры. Рио-де-Жанейро (Бразилия). Велоспорт. Мужчины. Шоссе. Групповая гонка [06.08] (2016) IPTVRip-AVC BOSS 2.32 GB
XXXI Летние Олимпийские игры. Рио-де-Жанейро 2016 (Бразилия) XXXI Летние Олимпийские Игры. Рио-де-Жанейро (Бразилия). Велоспорт. Трек. Женщины. Мужчины. Квалификация [16.08] (2016) IPTV 1080i ODESSA 1.98 GB
Показать сообщения:    

Текущее время: Сегодня 02:40

Часовой пояс: GMT



Вы не можете начинать темы
Вы не можете отвечать на сообщения
Вы не можете редактировать свои сообщения
Вы не можете удалять свои сообщения
Вы не можете голосовать в опросах
Вы не можете прикреплять файлы к сообщениям
Вы не можете скачивать файлы