Спортивная ходьба / Kapgang / Racewalking (Нильс Арден Оплев / Niels Arden Oplev) [2014, Дания, драма, DVDRip] + Sub Rus (aimenf) + Original Dan

 
Автор Сообщение

TorrentFilm ®

Пол:

Стаж: 1 год 11 месяцев

Сообщений: 7741



Награды: Нет

Торрент-статистика

Создавать темы 28-Дек-2014 00:31

[Цитировать]

Спортивная ходьба / Kapgang / Racewalking
"Добро пожаловать во взрослую жизнь"
Страна: Дания
Жанр: драма
Год выпуска: 2014
Продолжительность: 01:47:35
Перевод: Субтитры (автор перевода aimenf)
Cубтитры: русские
Оригинальная аудиодорожка: датский
Режиссер: Нильс Арден Оплев / Niels Arden Oplev
В ролях:
Виллас Бёэ / Villads Bøye, Фредерик Винтер Расмуссен / Frederik Winther Rasmussen, Крака Донслунн Нильсен / Kraka Donslund Nielsen, Сидсе Бабетт Кнудсен / Sidse Babett Knudsen, Андерс Бертельсен / Anders W. Berthelsen, Йенс Мальте Несбю / Jens Malthe Næsby, Курт Раун / Kurt Ravn, Бодиль Лассен / Bodil Lassen и другие.
Описание:
Фильм снят по одноимённому роману-автобиографии датского драматурга Мортена Киркскоу, в котором отображены события двух недель 1976 года. В провинциальном датском городке живёт Мартин Эстергорд, ему четырнадцать лет, он одарённый спортсмен и вскоре его ждёт конфирмация - впереди взрослая жизнь. Однако, повзрослеть ему пришлось раньше: внезапно умирает его мать. Брат и отец убиты горем и де-факто старшим в семье становится Мартин, на его плечи ложится забота о доме, об отце и брате, о предстоящей конфирмации. У Мартина лишь два близких друга - Ким и Кристина - у которых он ищет утешение и поддержку. Когда дружба перерастает в любовь, Мартину предстоит сделать непростой выбор.
Доп. информация:

Внимание! В субтитрах присутствует ненормативная лексика
Сэмпл: http://multi-up.com/1020710
Качество видео: DVDRip
Формат видео: AVI
Видео: XVID, 720x304, 24 fps, 1790 kbps, 0.341 Bits/(Pixel*Frame)
Аудио: mp3, 48 KHz, stereo, 192 kbps
Формат субтитров: softsub (SRT)

MediaInfo

General
Complete name : M:\Kapgang 2014\Kapgang.2014.avi
Format : AVI
Format/Info : Audio Video Interleave
File size : 1.50 GiB
Duration : 1h 47mn
Overall bit rate : 1 991 Kbps
Writing library : VirtualDub build 32507/release
Video
ID : 0
Format : MPEG-4 Visual
Format profile : Advanced Simple@L5
Format settings, BVOP : Yes
Format settings, QPel : No
Format settings, GMC : No warppoints
Format settings, Matrix : Default (H.263)
Codec ID : XVID
Codec ID/Hint : XviD
Duration : 1h 47mn
Bit rate : 1 790 Kbps
Width : 720 pixels
Height : 304 pixels
Display aspect ratio : 2.35:1
Frame rate : 24.000 fps
Color space : YUV
Chroma subsampling : 4:2:0
Bit depth : 8 bits
Scan type : Progressive
Compression mode : Lossy
Bits/(Pixel*Frame) : 0.341
Stream size : 1.35 GiB (90%)
Writing library : XviD 64
Audio
ID : 1
Format : MPEG Audio
Format version : Version 1
Format profile : Layer 3
Mode : Joint stereo
Codec ID : 55
Codec ID/Hint : MP3
Duration : 1h 47mn
Bit rate mode : Constant
Bit rate : 192 Kbps
Channel(s) : 2 channels
Sampling rate : 48.0 KHz
Compression mode : Lossy
Stream size : 148 MiB (10%)
Alignment : Split accross interleaves
Interleave, duration : 42 ms (1.00 video frame)
Interleave, preload duration : 500 ms

Скриншот c названием фильма

Скриншоты


Фрагмент субтитров

272
00:30:55,875 --> 00:31:00,085
Я о нём позабочусь.
Ну, всё, всё... Успокойся.
273
00:31:24,458 --> 00:31:26,552
Мартин.
274
00:31:28,167 --> 00:31:30,886
Не хочешь выпить чаю?
275
00:31:41,333 --> 00:31:45,509
- Времени нет, надо идти.
- Марти, милый, не волнуйся.
276
00:31:48,292 --> 00:31:52,342
Скоро мы вернёмся к остальным.
Но сначала тебе надо успокоиться.
277
00:31:52,500 --> 00:31:56,425
- Ты, поди, и чай-то не пьёшь?
- Пью, дома у Кристины.
278
00:32:01,042 --> 00:32:02,669
Садись.
279
00:32:07,917 --> 00:32:11,876
У нас дома чай пью только я.
280
00:32:12,042 --> 00:32:14,716
Йорген предпочитает кофе.
281
00:32:15,208 --> 00:32:19,759
Да и на работе, в универмаге Дэльса,
я чаёвничаю в одиночестве.
282
00:32:24,542 --> 00:32:28,342
Кристина - это твоя дама сердца?
283
00:32:33,875 --> 00:32:35,092
Мартин!
284
00:32:36,958 --> 00:32:39,882
Мартин, постой!
285
00:32:43,333 --> 00:32:45,006
Мартин...
286
00:32:48,417 --> 00:32:51,842
... искренне благодарен за то,
что вы собрались здесь.
287
00:32:58,125 --> 00:33:01,925
Всё хорошо, Мартин.
Проходи, садись.
288
00:33:06,292 --> 00:33:08,795
Всё хорошо, сынок.
289
00:33:08,958 --> 00:33:11,006
Спасибо, Кристиан.
290
00:33:17,792 --> 00:33:21,251
Мне бы очень хотелось,
что бы мы спели...
291
00:33:22,042 --> 00:33:26,127
одну песню, которую Майя
любила больше остальных.
292
00:33:31,750 --> 00:33:36,631
Название вылетело из головы...
293
00:33:36,792 --> 00:33:39,511
как я мог забыть...
294
00:33:39,667 --> 00:33:43,092
Она ведь обожала эту песню.
[Профиль] [ЛС]
Кто просматривает тему:

Форум Тема Автор Размер
Фильмы (DVD 5/9) Leгeндa №17 (Nикoлaй Leбeдeв) [2013, Россия, спорт, драма, биография, DVD9] R5 Original Rus TorrentFilm 7.06 GB
XXXI Летние Олимпийские игры. Рио-де-Жанейро 2016 (Бразилия) XXXI Летние Олимпийские Игры. Рио-де-Жанейро (Бразилия). Велоспорт. BMX. Женщины. Квалификация [17.08] (2016) IPTVRip-AVC BOSS 804 MB
XXXI Летние Олимпийские игры. Рио-де-Жанейро 2016 (Бразилия) XXXI Летние Олимпийские Игры. Рио-де-Жанейро (Бразилия). Велоспорт. BMX. Женщины. Мужчины. Финалы [19.08] (2016) IPTVRip 720p ODESSA 669 MB
XXXI Летние Олимпийские игры. Рио-де-Жанейро 2016 (Бразилия) XXXI Летние Олимпийские Игры. Рио-де-Жанейро (Бразилия). Велоспорт. BMX. Мужчины. 1/4 финала [18.08] (2016) IPTVRip 720p ODESSA 2.24 GB
XXXI Летние Олимпийские игры. Рио-де-Жанейро 2016 (Бразилия) XXXI Летние Олимпийские Игры. Рио-де-Жанейро (Бразилия). Велоспорт. BMX. Мужчины. Квалификация [17.08] (2016) IPTVRip-AVC BOSS 1.29 GB
XXXI Летние Олимпийские игры. Рио-де-Жанейро 2016 (Бразилия) XXXI Летние Олимпийские Игры. Рио-де-Жанейро (Бразилия). Велоспорт. Женщины. Шоссе. Групповая гонка [07.08] (2016) IPTVRip-AVC ODESSA 1.59 GB
XXXI Летние Олимпийские игры. Рио-де-Жанейро 2016 (Бразилия) XXXI Летние Олимпийские Игры. Рио-де-Жанейро (Бразилия). Велоспорт. Мужчины. Шоссе. Групповая гонка [06.08] (2016) IPTVRip-AVC BOSS 2.32 GB
XXXI Летние Олимпийские игры. Рио-де-Жанейро 2016 (Бразилия) XXXI Летние Олимпийские Игры. Рио-де-Жанейро (Бразилия). Велоспорт. Трек. Женщины. Мужчины. Квалификация [16.08] (2016) IPTV 1080i ODESSA 1.98 GB
Показать сообщения:    

Текущее время: Сегодня 00:39

Часовой пояс: GMT



Вы не можете начинать темы
Вы не можете отвечать на сообщения
Вы не можете редактировать свои сообщения
Вы не можете удалять свои сообщения
Вы не можете голосовать в опросах
Вы не можете прикреплять файлы к сообщениям
Вы не можете скачивать файлы