Сплин - Нашествие 2015 (2015) WEB-DLRip 720p

 
Автор Сообщение

sergej644 ®

Пол:

Стаж: 4 года 11 месяцев

Сообщений: 6045

Откуда: Soviet Union



Награды: Нет

Торрент-статистика

Создавать темы 09-Июл-2015 18:06

[Цитировать]

Информация о фильме
Название: Сплин - Нашествие 2015
Год выхода: 2015
Жанр: Концерт
О фильме:
Питерская группа "Сплин" стала главным хедлайнером open-air фестиваля отечественной рок-музыки "Нашествие-2015" и закрыла последний день мероприятия. В программу выступления вошли более 20 песен, среди которых окажутся и композиции недавнего, очень удачного двойного альбома "Резонанс".
Страна: Россия
Продолжительность: 01:31:22
Файл
Качество: WEB-DLRip 720p
Видео: MPEG-4 AVC, 2765 Кбит/с, 1280x720
Звук: AC3, 2 ch, 192 Кбит/с

MediaInfo:

General
Unique ID : 214272105452715759429697979085247923183 (0xA1334E7122FC5CFBAF8A274CC6CEC3EF)
Complete name : G:Сплин - Нашествие 2015 FilmRus.mkv
Format : Matroska
Format version : Version 2
File size : 1.89 GiB
Duration : 1h 31mn
Overall bit rate : 2 960 Kbps
Movie name : videoplayback
Encoded date : UTC 2015-07-05 23:47:09
Writing application : DVDFab 9.1.6.8
Writing library : libebml v0.7.8 + libmatroska v0.8.1
Video #1
ID : 1
Format : AVC
Format/Info : Advanced Video Codec
Format profile : High@L4.1
Format settings, CABAC : Yes
Format settings, ReFrames : 2 frames
Codec ID : V_MPEG4/ISO/AVC
Duration : 1h 31mn
Bit rate : 2 765 Kbps
Width : 1 280 pixels
Height : 720 pixels
Display aspect ratio : 16:9
Frame rate mode : Constant
Frame rate : 30.000 fps
Color space : YUV
Chroma subsampling : 4:2:0
Bit depth : 8 bits
Scan type : Progressive
Bits/(Pixel*Frame) : 0.100
Stream size : 1.73 GiB (92%)
Writing library : x264 core 142
Encoding settings : cabac=1 / ref=1 / deblock=1:-1:-1 / analyse=0x3:0 / me=hex / subme=5 / psy=0 / mixed_ref=0 / me_range=16 / chroma_me=1 / trellis=0 / 8x8dct=1 / cqm=0 / deadzone=21,11 / fast_pskip=1 / chroma_qp_offset=0 / threads=4 / lookahead_threads=1 / sliced_threads=0 / nr=0 / decimate=1 / interlaced=0 / bluray_compat=0 / constrained_intra=0 / bframes=2 / b_pyramid=0 / b_adapt=1 / b_bias=0 / direct=1 / weightb=1 / open_gop=0 / weightp=0 / keyint=24 / keyint_min=13 / scenecut=40 / intra_refresh=0 / rc=2pass / mbtree=0 / bitrate=2765 / ratetol=1.0 / qcomp=0.60 / qpmin=0 / qpmax=69 / qpstep=4 / cplxblur=20.0 / qblur=0.5 / ip_ratio=1.40 / pb_ratio=1.30 / aq=1:1.00
Default : Yes
Forced : No
Color primaries : BT.709
Transfer characteristics : BT.709
Matrix coefficients : BT.709
Audio #2
ID : 2
Format : AC-3
Format/Info : Audio Coding 3
Mode extension : CM (complete main)
Format settings, Endianness : Big
Codec ID : A_AC3
Duration : 1h 31mn
Bit rate mode : Constant
Bit rate : 192 Kbps
Channel(s) : 2 channels
Channel positions : Front: L R
Sampling rate : 48.0 KHz
Bit depth : 16 bits
Compression mode : Lossy
Stream size : 125 MiB (6%)
Default : Yes
Forced : No

Скриншоты

--
[Профиль] [ЛС]

Создавать темы 13-Авг-2015 12:04 (спустя 1 месяц 3 дня)

Топик был перенесен из форума Концерты в форум Наши концерты
sergej644
 
Кто просматривает тему:

Форум Тема Автор Размер
Rock (Rock) Сплин - Резонанс (2CD) - 2014, MP3, tracks, 320 kbps sergej644 196 MB
Rock Сплин - Ключ к шифру (2016) MP3 достали все 129 MB
Показать сообщения:    

Текущее время: Сегодня 16:26

Часовой пояс: GMT



Вы не можете начинать темы
Вы не можете отвечать на сообщения
Вы не можете редактировать свои сообщения
Вы не можете удалять свои сообщения
Вы не можете голосовать в опросах
Вы не можете прикреплять файлы к сообщениям
Вы не можете скачивать файлы