Список Шиндлера / Schindler's List (1993) BDRip 1080p | 20th Anniversary Edition

 
Автор Сообщение

Russian Mafia ®

Пол:

Стаж: 1 год 8 месяцев

Сообщений: 4247



Награды: 10 (Подробнее)

Top Releaser 3 (Количество: 1) Top Releaser 4 (Количество: 1) Mega Seeder 5 (Количество: 1)
Торрент-статистика

Создавать темы 25-Сен-2015 19:53

[Цитировать]

Информация о фильме
Название: Список Шиндлера
Оригинальное название: Schindler's List
Год выхода: 1993
Жанр: драма, военный, биография, история
Режиссер: Стивен Спилберг
В ролях: Лиам Нисон, Бен Кингсли, Рэйф Файнс, Кэролайн Гудолл, Эмбет Дэвидц, Джонатан Сагалл, Малгоша Гебель, Шмуэль Леви, Марк Иванир, Беатриче Макола
О фильме: Лента рассказывает реальную историю загадочного Оскара Шиндлера, члена нацистской партии, преуспевающего фабриканта, спасшего во время Второй мировой войны более тысячи ста евреев. Это триумф одного человека, не похожего на других, и драма тех, кто, благодаря ему, выжил в ужасный период человеческой истории.

Выпущено: Universal Pictures
Продолжительность: 03:15:07
Перевод: Дублированный (лицензия)
Файл
Кодек: x264
Качество: BDRip (источник: Blu-ray Disc)
Видео: 1920x1040 (16:9), 23.976 fps, 7544 kbps
Аудио #1: AC-3, 6 ch, 448 kbps (Rus)
Аудио #2: AC-3, 6 ch, 448 kbps (Eng)
Субтитры: Русские (форс,полные), Английские
Скачать: сэмпл
Скриншоты

MI

Общее
Уникальный идентификатор : 175156958702692191354160238269823520251 (0x83C600CFF7AA4C6A8D47B4E8F5E90DFB)
Полное имя : Schindler's.List.1993.BDRip.1080p.Rus.Eng.mkv
Формат : Matroska
Версия формата : Version 2
Размер файла : 11,5 Гбайт
Продолжительность : 3 ч. 15 м.
Общий поток : 8441 Кбит/сек
Название фильма : Список Шиндлера / Schindler's List (1993) | 20th Anniversary Edition
Дата кодирования : UTC 2013-04-10 21:07:15
Программа кодирования : mkvmerge v5.8.0 ('No Sleep / Pillow') built on Sep 2 2012 15:37:04
Библиотека кодирования : libebml v1.2.3 + libmatroska v1.3.0
Видео
Идентификатор : 1
Формат : AVC
Формат/Информация : Advanced Video Codec
Профиль формата : High@L4.1
Параметр CABAC формата : Да
Параметр ReFrames формата : 4 кадра
Идентификатор кодека : V_MPEG4/ISO/AVC
Продолжительность : 3 ч. 15 м.
Битрейт : 7544 Кбит/сек
Ширина : 1920 пикселей
Высота : 1040 пикселей
Соотношение сторон : 16:9
Частота кадров : 23,976 кадра/сек
Цветовое пространство : YUV
Субдискретизация насыщенности : 4:2:0
Битовая глубина : 8 бит
Тип развёртки : Прогрессивная
Бит/(Пиксели*Кадры) : 0.158
Размер потока : 10,1 Гбайт (87%)
Заголовок : Release by AlexKa
Библиотека кодирования : x264 core 130 r2273 b3065e6
Настройки программы : cabac=1 / ref=4 / deblock=1:-3:-3 / analyse=0x3:0x133 / me=umh / subme=9 / psy=1 / psy_rd=1.00:0.10 / mixed_ref=1 / me_range=32 / chroma_me=1 / trellis=2 / 8x8dct=1 / cqm=0 / deadzone=21,11 / fast_pskip=0 / chroma_qp_offset=0 / threads=12 / lookahead_threads=1 / sliced_threads=0 / nr=0 / decimate=1 / interlaced=0 / bluray_compat=0 / constrained_intra=0 / bframes=6 / b_pyramid=2 / b_adapt=2 / b_bias=0 / direct=3 / weightb=1 / open_gop=0 / weightp=2 / keyint=240 / keyint_min=23 / scenecut=40 / intra_refresh=0 / rc=2pass / mbtree=0 / bitrate=7544 / ratetol=1.0 / qcomp=0.60 / qpmin=0 / qpmax=69 / qpstep=4 / cplxblur=20.0 / qblur=0.5 / ip_ratio=1.40 / pb_ratio=1.30 / aq=1:0.80
Язык : English
Аудио #1
Идентификатор : 2
Формат : AC-3
Формат/Информация : Audio Coding 3
Расширение режима : CM (complete main)
Идентификатор кодека : A_AC3
Продолжительность : 3 ч. 15 м.
Вид битрейта : Постоянный
Битрейт : 448 Кбит/сек
Каналы : 6 каналов
Расположение каналов : Front: L C R, Side: L R, LFE
Частота : 48,0 КГц
Битовая глубина : 16 бит
Метод сжатия : С потерями
Размер потока : 625 Мбайт (5%)
Заголовок : Rus
Язык : Russian
Аудио #2
Идентификатор : 3
Формат : AC-3
Формат/Информация : Audio Coding 3
Расширение режима : CM (complete main)
Идентификатор кодека : A_AC3
Продолжительность : 3 ч. 15 м.
Вид битрейта : Постоянный
Битрейт : 448 Кбит/сек
Каналы : 6 каналов
Расположение каналов : Front: L C R, Side: L R, LFE
Частота : 48,0 КГц
Битовая глубина : 16 бит
Метод сжатия : С потерями
Размер потока : 625 Мбайт (5%)
Заголовок : Eng
Язык : English
Текст #1
Идентификатор : 4
Формат : UTF-8
Идентификатор кодека : S_TEXT/UTF8
Идентификатор кодека/Информация : UTF-8 Plain Text
Заголовок : Rus forced
Язык : Russian
Текст #2
Идентификатор : 5
Формат : UTF-8
Идентификатор кодека : S_TEXT/UTF8
Идентификатор кодека/Информация : UTF-8 Plain Text
Заголовок : Rus
Язык : Russian
Текст #3
Идентификатор : 6
Формат : UTF-8
Идентификатор кодека : S_TEXT/UTF8
Идентификатор кодека/Информация : UTF-8 Plain Text
Заголовок : Eng
Язык : English
Меню
00:00:00.000 : :Chapter 01
00:03:23.161 : :Chapter 02
00:10:12.153 : :Chapter 03
00:14:51.307 : :Chapter 04
00:17:28.714 : :Chapter 05
00:21:42.384 : :Chapter 06
00:23:48.009 : :Chapter 07
00:30:37.669 : :Chapter 08
00:34:23.728 : :Chapter 09
00:41:43.751 : :Chapter 10
00:44:16.737 : :Chapter 11
00:50:55.761 : :Chapter 12
00:55:09.431 : :Chapter 13
00:56:44.859 : :Chapter 14
01:13:44.753 : :Chapter 15
01:17:05.704 : :Chapter 16
01:26:02.115 : :Chapter 17
01:29:26.319 : :Chapter 18
01:32:01.182 : :Chapter 19
01:38:36.869 : :Chapter 20
01:43:19.776 : :Chapter 21
01:49:36.611 : :Chapter 22
01:55:45.980 : :Chapter 23
01:58:42.824 : :Chapter 24
02:02:59.789 : :Chapter 25
02:06:49.310 : :Chapter 26
02:10:11.637 : :Chapter 27
02:13:44.725 : :Chapter 28
02:18:21.376 : :Chapter 29
02:26:46.506 : :Chapter 30
02:34:15.621 : :Chapter 31
02:38:48.018 : :Chapter 32
02:41:15.415 : :Chapter 33
02:46:21.763 : :Chapter 34
02:48:12.332 : :Chapter 35
02:50:23.171 : :Chapter 36
02:55:28.392 : :Chapter 37
03:01:51.358 : :Chapter 38
03:05:06.720 : :Chapter 39
03:08:51.278 : :Chapter 40
03:15:06.319 : :Chapter 41

x264

x264 [info]: frame I:1596 Avg QP:19.26 size:162661
x264 [info]: frame P:59363 Avg QP:21.79 size: 65378
x264 [info]: frame B:219718 Avg QP:24.66 size: 31390
[Профиль] [ЛС]
Показать сообщения:    

Текущее время: Сегодня 20:05

Часовой пояс: GMT



Вы не можете начинать темы
Вы не можете отвечать на сообщения
Вы не можете редактировать свои сообщения
Вы не можете удалять свои сообщения
Вы не можете голосовать в опросах
Вы не можете прикреплять файлы к сообщениям
Вы не можете скачивать файлы