Список Шиндлера / Schindler's list (1993) BDRip 720p by msltel | D, P, A

 
Автор Сообщение

sergej644 ®

Пол:

Стаж: 4 года 11 месяцев

Сообщений: 6046

Откуда: Soviet Union



Награды: Нет

Торрент-статистика

Создавать темы 08-Фев-2015 12:58

[Цитировать]

Название: Список Шиндлера
Оригинальное название: Schindler's List
Год выпуска: 1993
Жанр: Драма, военный, биография, история
Выпущено: США, Amblin Entertainment, Universal Pictures
Режиссер: Стивен Спилберг
В ролях: Лиам Нисон, Бен Кингсли, Рэйф Файнс, Кэролайн Гудолл, Джонатан Сагалл, Эмбет Дэвидц, Малгоша Гебель, Шмуэль Леви, Марк Иванир, Беатрис Макола, Анджей Северин, Фридрих фон Тун, Кшиштоф Люфт, Хэрри Неринг, Норберт Вайссер, Ади Ницан, Михаэль Шнайдер, Мири Фабиан, Анна Муха, Альберт Мисак, Майкл Гордон, Яцек Войчицки, Беата Палух, Петр Полк, Эзра Дегэн, Беата Новак, Леопольд Козловски, Ежи Новак, Адам Семён, Павел Делонг, Шабтай Конорти, Хенрик Биста, Тадеуш Брадецкий, Элина Лёвензон, Ева Колясиньска, Беттина Купфер, Вили Матула, Гено Лечнер, Людгер Пистор, Бранко Лустиг, Ганс-Михаэл Реберг, Эугениуш Привезенцев
О фильме: Кто спас одну человеческую жизнь, тот спас целый мир... "Список Шиндлера" - признанный шедевр кинематографа. Лента рассказывает реальную историю загадочного Оскара Шиндлера, члена нацистской партии, преуспевающего фабриканта, спасшего во время Второй мировой войны более тысячи ста евреев. Это триумф одного человека, не похожего на других, и драма тех, кто, благодаря ему, выжил в ужасный период человеческой истории.
Качество: BDRip 720p
Размер: 17.8 ГБ
Продолжительность: 03:15:12
Видео: MPEG-4 AVC, 1280x694, 7384 kbps, 23.976 кадр/с
Аудио 1: русский, AC3, 192 kbps, 2 ch, 48 kHz [Дублированный]
Аудио 2: русский, AC3, 448 kbps, 6 ch, 48 kHz [Профессиональный многоголосый]
Аудио 3: украинский, AC3, 192 kbps, 2 ch, 48 kHz [Профессиональный многоголосый]
Аудио 4: русский, AC3, 640 kbps, 6 ch, 48 kHz [Авторский, Юрий Живов]
Отдельные файлы
Аудио: русский, 48 kHz, DTS, 2 ch, 1509 kbps avg [Дублированный]
Аудио: русский, AC3, 192 kbps, 2 ch, 48 kHz [Авторский, Сергей Визгунов]
Аудио: русский, AC3, 192 kbps, 2 ch, 48 kHz [Авторский, Василий Горчаков]
Аудио: русский, AC3, 768 kbps, 6 ch, 48 kHz [Авторский, Юрий Живов]
Аудио: русский, AC3, 384 kbps, 6 ch, 48 kHz [Авторский, Юрий Сербин 1995]
Аудио: русский, AC3, 384 kbps, 6 ch, 48 kHz [Авторский, Юрий Сербин 2012]
Аудио: английский, AC3, 640 kbps, 6 ch, 48 kHz [Оригинал]
Субтитры 1: русские
Субтитры 2: английские
Субтитры 3: английские (для слабослышащих)

Награды

«Аманда» в Норвегии за лучшую иностранную ленту, приз Японской киноакадемии за лучшую иностранную картину по итогам 1994 года, «Грэмми» за музыку к фильму в 1995 году, включён в 2004 году в Национальный регистр фильмов.
Сезар, 1995 год
Номинации (1):
Лучший фильм на иностранном языке
Оскар, 1994 год
Победитель (7):
Лучший фильм
Лучший режиссер (Стивен Спилберг)
Лучший адаптированный сценарий
Лучшая работа оператора
Лучшие декорации
Лучший монтаж
Лучший оригинальный саундтрек
Номинации (5):
Лучшая мужская роль (Лиам Нисон)
Лучшая мужская роль второго плана (Рэйф Файнс)
Лучшие костюмы
Лучший звук
Лучший грим
Золотой глобус, 1994 год
Победитель (3):
Лучший фильм (драма)
Лучший режиссер (Стивен Спилберг)
Лучший сценарий
Номинации (3):
Лучшая мужская роль (драма) (Лиам Нисон)
Лучшая мужская роль второго плана (Рэйф Файнс)
Лучший саундтрек
Премия канала «MTV», 1994 год
Номинации (2):
Лучший фильм
Прорыв года (Рэйф Файнс)
Британская академия, 1994 год
Победитель (7):
Лучший фильм
Лучшая мужская роль второго плана (Рэйф Файнс)
Лучший адаптированный сценарий
Лучшая работа оператора
Лучший монтаж
Лучший саундтрек
Премия имени Дэвида Лина за достижения в режиссуре (Стивен Спилберг)
Номинации (6):
Лучшая мужская роль (Лиам Нисон)
Лучшая мужская роль второго плана (Бен Кингсли)
Лучшие костюмы
Лучший звук
Лучший грим
Лучшая работа художника-постановщика

MediaInfo + Лог х264

Общее
Полное имя : D:VideoSpisok.Shindlera.1993.x264.BDRip.720pSpisok.Shindlera.1993.AVO.rus.В.Горчаков.ac3
Формат : AC-3
Формат/Информация : Audio Coding 3
Размер файла : 268 Мбайт
Продолжительность : 3 ч. 15 м.
Режим общего битрейта : Постоянный
Общий поток : 192 Кбит/сек
Аудио
Формат : AC-3
Формат/Информация : Audio Coding 3
Расширение режима : CM (complete main)
Параметр Endianness формата : Big
Продолжительность : 3 ч. 15 м.
Вид битрейта : Постоянный
Битрейт : 192 Кбит/сек
Каналы : 2 канала
Расположение каналов : Front: L R
Частота : 48,0 КГц
Битовая глубина : 16 бит
Метод сжатия : С потерями
Размер потока : 268 Мбайт (100%)
Общее
Полное имя : D:VideoSpisok.Shindlera.1993.x264.BDRip.720pSpisok.Shindlera.1993.AVO.rus.С.Визгунов.ac3
Формат : AC-3
Формат/Информация : Audio Coding 3
Размер файла : 268 Мбайт
Продолжительность : 3 ч. 15 м.
Режим общего битрейта : Постоянный
Общий поток : 192 Кбит/сек
Аудио
Формат : AC-3
Формат/Информация : Audio Coding 3
Расширение режима : CM (complete main)
Параметр Endianness формата : Big
Продолжительность : 3 ч. 15 м.
Вид битрейта : Постоянный
Битрейт : 192 Кбит/сек
Каналы : 2 канала
Расположение каналов : Front: L R
Частота : 48,0 КГц
Битовая глубина : 16 бит
Метод сжатия : С потерями
Размер потока : 268 Мбайт (100%)
Общее
Полное имя : D:VideoSpisok.Shindlera.1993.x264.BDRip.720pSpisok.Shindlera.1993.AVO.rus.Ю.Живов.dts
Формат : DTS
Формат/Информация : Digital Theater Systems
Размер файла : 1,05 Гбайт
Продолжительность : 3 ч. 15 м.
Режим общего битрейта : Постоянный
Общий поток : 768 Кбит/сек
Аудио
Формат : DTS
Формат/Информация : Digital Theater Systems
Режим : 16
Параметр Endianness формата : Big
Продолжительность : 3 ч. 15 м.
Вид битрейта : Постоянный
Битрейт : 768 Кбит/сек
Каналы : 6 каналов
Расположение каналов : Front: L C R, Side: L R, LFE
Частота : 48,0 КГц
Битовая глубина : 24 бит
Метод сжатия : С потерями
Размер потока : 1,05 Гбайт (100%)
Общее
Полное имя : D:VideoSpisok.Shindlera.1993.x264.BDRip.720pSpisok.Shindlera.1993.AVO.rus.Ю.Сербин 1995.ac3
Формат : AC-3
Формат/Информация : Audio Coding 3
Размер файла : 536 Мбайт
Продолжительность : 3 ч. 15 м.
Режим общего битрейта : Постоянный
Общий поток : 384 Кбит/сек
Аудио
Формат : AC-3
Формат/Информация : Audio Coding 3
Расширение режима : CM (complete main)
Параметр Endianness формата : Big
Продолжительность : 3 ч. 15 м.
Вид битрейта : Постоянный
Битрейт : 384 Кбит/сек
Каналы : 6 каналов
Расположение каналов : Front: L C R, Side: L R, LFE
Частота : 48,0 КГц
Битовая глубина : 16 бит
Метод сжатия : С потерями
Размер потока : 536 Мбайт (100%)
Общее
Полное имя : D:VideoSpisok.Shindlera.1993.x264.BDRip.720pSpisok.Shindlera.1993.AVO.rus.Ю.Сербин 2012.ac3
Формат : AC-3
Формат/Информация : Audio Coding 3
Размер файла : 536 Мбайт
Продолжительность : 3 ч. 15 м.
Режим общего битрейта : Постоянный
Общий поток : 384 Кбит/сек
Аудио
Формат : AC-3
Формат/Информация : Audio Coding 3
Расширение режима : CM (complete main)
Параметр Endianness формата : Big
Продолжительность : 3 ч. 15 м.
Вид битрейта : Постоянный
Битрейт : 384 Кбит/сек
Каналы : 6 каналов
Расположение каналов : Front: L C R, Side: L R, LFE
Частота : 48,0 КГц
Битовая глубина : 16 бит
Метод сжатия : С потерями
Размер потока : 536 Мбайт (100%)
Общее
Полное имя : D:VideoSpisok.Shindlera.1993.x264.BDRip.720pSpisok.Shindlera.1993.DUB.rus.dts
Формат : DTS
Формат/Информация : Digital Theater Systems
Размер файла : 2,06 Гбайт
Продолжительность : 3 ч. 15 м.
Режим общего битрейта : Постоянный
Общий поток : 1509 Кбит/сек
Аудио
Формат : DTS
Формат/Информация : Digital Theater Systems
Режим : 16
Параметр Endianness формата : Big
Продолжительность : 3 ч. 15 м.
Вид битрейта : Постоянный
Битрейт : 1509 Кбит/сек
Каналы : 2 канала
Расположение каналов : Front: L R
Частота : 48,0 КГц
Битовая глубина : 24 бит
Метод сжатия : С потерями
Размер потока : 2,06 Гбайт (100%)
Общее
Полное имя : D:VideoSpisok.Shindlera.1993.x264.BDRip.720pSpisok.Shindlera.1993.eng.SDH.srt
Формат : SubRip
Размер файла : 174 Кбайт
Текст
Формат : SubRip
Метод сжатия : Без потерь
Общее
Полное имя : D:VideoSpisok.Shindlera.1993.x264.BDRip.720pSpisok.Shindlera.1993.eng.srt
Формат : SubRip
Размер файла : 158 Кбайт
Текст
Формат : SubRip
Метод сжатия : Без потерь
Общее
Полное имя : D:VideoSpisok.Shindlera.1993.x264.BDRip.720pSpisok.Shindlera.1993.Original.eng.ac3
Формат : AC-3
Формат/Информация : Audio Coding 3
Размер файла : 894 Мбайт
Продолжительность : 3 ч. 15 м.
Режим общего битрейта : Постоянный
Общий поток : 640 Кбит/сек
Аудио
Формат : AC-3
Формат/Информация : Audio Coding 3
Расширение режима : CM (complete main)
Параметр Endianness формата : Big
Продолжительность : 3 ч. 15 м.
Вид битрейта : Постоянный
Битрейт : 640 Кбит/сек
Каналы : 6 каналов
Расположение каналов : Front: L C R, Side: L R, LFE
Частота : 48,0 КГц
Битовая глубина : 16 бит
Метод сжатия : С потерями
Размер потока : 894 Мбайт (100%)
Общее
Полное имя : D:VideoSpisok.Shindlera.1993.x264.BDRip.720pSpisok.Shindlera.1993.rus.srt
Формат : SubRip
Размер файла : 166 Кбайт
Текст
Формат : SubRip
Метод сжатия : Без потерь
Общее
Уникальный идентификатор : 210376816641339679534882671432738932195 (0x9E4519E0361357A5A98FE73791C205E3)
Полное имя : D:VideoSpisok.Shindlera.1993.x264.BDRip.720pSpisok.Shindlera.1993.x264.BDRip.720p.mkv
Формат : Matroska
Версия формата : Version 4 / Version 2
Размер файла : 12,3 Гбайт
Продолжительность : 3 ч. 15 м.
Общий поток : 9035 Кбит/сек
Название фильма : Список Шиндлера / Schindler's list / 1993 / BDRip -- STarankov
Дата кодирования : UTC 2014-09-16 07:06:30
Программа кодирования : mkvmerge v6.9.1 ('Blue Panther') 64bit built on Apr 18 2014 18:23:38
Библиотека кодирования : libebml v1.3.0 + libmatroska v1.4.1
Видео
Идентификатор : 1
Формат : AVC
Формат/Информация : Advanced Video Codec
Профиль формата : High@L4.1
Параметр CABAC формата : Да
Параметр ReFrames формата : 9 кадров
Идентификатор кодека : V_MPEG4/ISO/AVC
Продолжительность : 3 ч. 15 м.
Битрейт : 7384 Кбит/сек
Ширина : 1280 пикселей
Высота : 694 пикселя
Соотношение сторон : 1,85:1
Режим частоты кадров : Постоянный
Частота кадров : 23,976 кадра/сек
Цветовое пространство : YUV
Субдискретизация насыщенности : 4:2:0
Битовая глубина : 8 бит
Тип развёртки : Прогрессивная
Бит/(Пиксели*Кадры) : 0.347
Размер потока : 10,1 Гбайт (82%)
Библиотека кодирования : x264 core 129 r2245 bc13772
Настройки программы : cabac=1 / ref=9 / deblock=1:-1:-1 / analyse=0x3:0x113 / me=umh / subme=9 / psy=1 / psy_rd=1.00:0.15 / mixed_ref=1 / me_range=24 / chroma_me=1 / trellis=2 / 8x8dct=1 / cqm=0 / deadzone=21,11 / fast_pskip=1 / chroma_qp_offset=-3 / threads=6 / lookahead_threads=1 / sliced_threads=0 / nr=0 / decimate=1 / interlaced=0 / bluray_compat=0 / constrained_intra=0 / bframes=8 / b_pyramid=2 / b_adapt=2 / b_bias=0 / direct=1 / weightb=0 / open_gop=0 / weightp=2 / keyint=230 / keyint_min=23 / scenecut=40 / intra_refresh=0 / rc=crf / mbtree=0 / crf=18.0 / qcomp=0.60 / qpmin=0 / qpmax=69 / qpstep=4 / ip_ratio=1.40 / pb_ratio=1.30 / aq=1:1.00
Язык : English
Default : Да
Forced : Нет
Аудио #1
Идентификатор : 2
Формат : AC-3
Формат/Информация : Audio Coding 3
Расширение режима : CM (complete main)
Параметр Endianness формата : Big
Идентификатор кодека : A_AC3
Продолжительность : 3 ч. 15 м.
Вид битрейта : Постоянный
Битрейт : 192 Кбит/сек
Каналы : 2 канала
Расположение каналов : Front: L R
Частота : 48,0 КГц
Битовая глубина : 16 бит
Метод сжатия : С потерями
Размер потока : 268 Мбайт (2%)
Заголовок : DUB
Язык : Russian
Default : Да
Forced : Нет
Аудио #2
Идентификатор : 3
Формат : AC-3
Формат/Информация : Audio Coding 3
Расширение режима : CM (complete main)
Параметр Endianness формата : Big
Идентификатор кодека : A_AC3
Продолжительность : 3 ч. 15 м.
Вид битрейта : Постоянный
Битрейт : 448 Кбит/сек
Каналы : 6 каналов
Расположение каналов : Front: L C R, Side: L R, LFE
Частота : 48,0 КГц
Битовая глубина : 16 бит
Метод сжатия : С потерями
Размер потока : 626 Мбайт (5%)
Заголовок : MVO
Язык : Russian
Default : Нет
Forced : Нет
Аудио #3
Идентификатор : 4
Формат : AC-3
Формат/Информация : Audio Coding 3
Расширение режима : CM (complete main)
Параметр Endianness формата : Big
Идентификатор кодека : A_AC3
Продолжительность : 3 ч. 15 м.
Вид битрейта : Постоянный
Битрейт : 192 Кбит/сек
Каналы : 2 канала
Расположение каналов : Front: L R
Частота : 48,0 КГц
Битовая глубина : 16 бит
Метод сжатия : С потерями
Размер потока : 268 Мбайт (2%)
Заголовок : MVO
Язык : Ukrainian
Default : Нет
Forced : Нет
Аудио #4
Идентификатор : 5
Формат : AC-3
Формат/Информация : Audio Coding 3
Расширение режима : CM (complete main)
Параметр Endianness формата : Big
Идентификатор кодека : A_AC3
Продолжительность : 3 ч. 15 м.
Вид битрейта : Постоянный
Битрейт : 640 Кбит/сек
Каналы : 6 каналов
Расположение каналов : Front: L C R, Side: L R, LFE
Частота : 48,0 КГц
Битовая глубина : 16 бит
Метод сжатия : С потерями
Размер потока : 894 Мбайт (7%)
Заголовок : AVO (Юрий Живов)
Язык : Russian
Default : Нет
Forced : Нет
---[NoImage] avs [info]: 1280x694p 1:1 @ 24000/1001 fps (cfr)
---[NoImage] x264 [info]: using SAR=1/1
---[NoImage] x264 [info]: using cpu capabilities: MMX2 SSE2Fast SSSE3 FastShuffle SSE4.2
---[NoImage] x264 [info]: profile High, level 4.1
---[NoImage]
---[NoImage] x264 [info]: frame I:1679 Avg QP:16.71 size:125065
---[NoImage] x264 [info]: frame P:60399 Avg QP:18.09 size: 62354
---[NoImage] x264 [info]: frame B:218746 Avg QP:20.37 size: 32428
---[NoImage] x264 [info]: consecutive B-frames: 1.4% 2.1% 7.2% 30.9% 16.5% 23.7% 7.1% 5.7% 5.5%
---[NoImage] x264 [info]: mb I I16..4: 14.9% 67.1% 18.0%
---[NoImage] x264 [info]: mb P I16..4: 3.4% 19.4% 3.0% P16..4: 32.7% 24.4% 12.4% 0.0% 0.0% skip: 4.6%
---[NoImage] x264 [info]: mb B I16..4: 0.2% 4.0% 0.4% B16..8: 43.8% 13.5% 3.8% direct: 9.7% skip:24.5% L0:41.2% L1:42.5% BI:16.2%
---[NoImage] x264 [info]: 8x8 transform intra:78.8% inter:56.5%
---[NoImage] x264 [info]: coded y,uvDC,uvAC intra: 93.9% 9.5% 4.6% inter: 39.8% 4.2% 0.3%
---[NoImage] x264 [info]: i16 v,h,dc,p: 17% 4% 37% 42%
---[NoImage] x264 [info]: i8 v,h,dc,ddl,ddr,vr,hd,vl,hu: 12% 9% 14% 8% 12% 11% 11% 11% 12%
---[NoImage] x264 [info]: i4 v,h,dc,ddl,ddr,vr,hd,vl,hu: 14% 6% 6% 9% 14% 14% 13% 11% 12%
---[NoImage] x264 [info]: i8c dc,h,v,p: 94% 3% 2% 0%
---[NoImage] x264 [info]: Weighted P-Frames: Y:9.5% UV:0.4%
---[NoImage] x264 [info]: ref P L0: 41.2% 10.9% 19.5% 7.0% 6.6% 4.4% 4.6% 2.5% 2.8% 0.4% 0.0%
---[NoImage] x264 [info]: ref B L0: 69.9% 12.4% 6.4% 3.9% 2.9% 2.6% 1.4% 0.6%
---[NoImage] x264 [info]: ref B L1: 92.1% 7.9%
---[NoImage] x264 [info]: kb/s:7560.73
---[NoImage] encoded 280824 frames, 5.10 fps, 7560.73 kb/s
--[Information] Final statistics
---[Information] [27.02.2013 11:32:00] Constant Quality Mode: Quality 18 computed...
---[Information] [27.02.2013 11:32:00] Video Bitrate Obtained (approximate): 7562 kbit/s
--[Information] [27.02.2013 11:32:00] MediaInfo
---[Information] File: E:RipSpisok.Shindlera.1993.x264.BDRipSpisok.Shindlera.1993.x264.BDRip.720p.mkv

Скриншоты


[Профиль] [ЛС]
Показать сообщения:    

Текущее время: Сегодня 10:14

Часовой пояс: GMT



Вы не можете начинать темы
Вы не можете отвечать на сообщения
Вы не можете редактировать свои сообщения
Вы не можете удалять свои сообщения
Вы не можете голосовать в опросах
Вы не можете прикреплять файлы к сообщениям
Вы не можете скачивать файлы