Список контактов / Deception (2008) BDRip 1080p | D

 
Автор Сообщение

Russian Mafia ®

Пол:

Стаж: 1 год 8 месяцев

Сообщений: 4257



Награды: 10 (Подробнее)

Mega Seeder 5 (Количество: 1) Top Releaser 4 (Количество: 1) Top Releaser 3 (Количество: 1)
Торрент-статистика

Создавать темы 22-Авг-2016 08:52

[Цитировать]

Список контактов / Deception
Страна: США
Производство: Media Rights Capital, Rifkin-Eberts, Seed Productions
Год выпуска: 2008
Жанр: триллер, драма, криминал, детектив
Продолжительность: 01:47:49
Режиссер: Марсель Лангенеггер
Автор сценария: Марк Бомбэк
В ролях: Юэн МакГрегор, Хью Джекман, Мишель Уильямс, Брюс Олтмен, Эндрю Гинсбург, Стефани Рот Хаберли, Кристин Кан, Агнет Орнсхолт
Описание: Джонатан МакУори не живёт — у него нет девушки, нет семьи, друзей, и лишь карьера движет им. Однажды засидевшись допоздна в офисе, он знакомится с харизматичным и бойким молодым адвокатом Уайттом Босом. Они быстро находят общий язык, и вот Джонатан уже в ночном клубе в окружении сногсшибательных девушек, и Уайатт представляет ему «С» — женщину, о которой Джонатан ранее не смел и мечтать. Так у Джонатана появляется всё, чего ему так не хватало. Но бесплатный сыр бывает лишь в мышеловке… Уайтт далеко не безгрешен, а его вмешательство в судьбу Джонатана — не бескорыстно. В смертельно опасном мире Уайатта Джонатан всего лишь турист...

Перевод: Профессиональный (полное дублирование)
Субтитры: русские, английские-Качество: BDRip 1080p
Формат: МКV
Видео кодек: AVC
Аудио кодек: АС3 | DTS
Видео: 1920x800 (2.40:1), 23.976 fps, MPEG-4 AVC ~16.6 Mbps avg
Аудио №1: 48.0 kHz, AC3 Dolby Digital, 3/2 (L,C,R,l,r) + LFE ch, ~448 kbps | RUS
Аудио №2: 48.0 kHz, Digital Theater Systems, 3/2 (L,C,R,l,r) + LFE ch, ~1510 kbps | ENG
Формат субтитров: UTF-8 Plain Text
Бюджет: $25 000 000
Дата премьеры (мир): 24 апреля 2008
Дата премьеры (РФ): 24 апреля 2008, «Парадиз»

Media Info

General
Unique ID : 221842604000264426180150838639098241012 (0xA6E554D6882179C6A315EDF89E6A9FF4)
Complete name : Deception [Список контактов] (2009) 1920x800 BDRip by -=mallaigne=- RusEngSubsChpt.mkv
Format : Matroska
Format version : Version 2
File size : 14.0 GiB
Duration : 1h 47mn
Overall bit rate : 18.5 Mbps
Movie name : ripped by -=mallaigne=-
Encoded date : UTC 2012-05-27 03:06:11
Writing application : mkvmerge v5.5.0 ('Healer') built on Apr 6 2012 21:43:24
Writing library : libebml v1.2.3 + libmatroska v1.3.0
Video #1
ID : 1
Format : AVC
Format/Info : Advanced Video Codec
Format profile : High@L4.1
Format settings, CABAC : Yes
Format settings, ReFrames : 5 frames
Codec ID : V_MPEG4/ISO/AVC
Duration : 1h 47mn
Bit rate : 16.6 Mbps
Width : 1 920 pixels
Height : 800 pixels
Display aspect ratio : 2.40:1
Frame rate : 23.976 fps
Color space : YUV
Chroma subsampling : 4:2:0
Bit depth : 8 bits
Scan type : Progressive
Bits/(Pixel*Frame) : 0.451
Stream size : 12.2 GiB (87%)
Title : 53% of the original
Writing library : x264 core 125 r2200kMod 999b753
Encoding settings : cabac=1 / ref=5 / deblock=1:-3:-3 / analyse=0x3:0x133 / me=umh / subme=11 / psy=1 / fade_compensate=0.00 / psy_rd=1.10:0.00 / mixed_ref=1 / me_range=48 / chroma_me=1 / trellis=2 / 8x8dct=1 / cqm=0 / deadzone=21,11 / fast_pskip=0 / chroma_qp_offset=-2 / threads=12 / lookahead_threads=2 / sliced_threads=0 / nr=0 / decimate=0 / interlaced=0 / bluray_compat=0 / constrained_intra=0 / bframes=10 / b_pyramid=2 / b_adapt=2 / b_bias=0 / direct=3 / weightb=1 / open_gop=0 / weightp=2 / keyint=240 / keyint_min=23 / scenecut=40 / intra_refresh=0 / rc=2pass / mbtree=0 / bitrate=16622 / ratetol=1.0 / qcomp=0.60 / qpmin=0 / qpmax=69 / qpstep=4 / cplxblur=20.0 / qblur=0.5 / ip_ratio=1.40 / pb_ratio=1.30 / aq=3:0.80 / zones=146205,155111,b=0.45
Language : English
Default : Yes
Forced : No
Color primaries : BT.709-5, BT.1361, IEC 61966-2-4, SMPTE RP177
Transfer characteristics : BT.709-5, BT.1361
Matrix coefficients : BT.709-5, BT.1361, IEC 61966-2-4 709, SMPTE RP177
Audio #2
ID : 2
Format : AC-3
Format/Info : Audio Coding 3
Mode extension : CM (complete main)
Format settings, Endianness : Big
Codec ID : A_AC3
Duration : 1h 47mn
Bit rate mode : Constant
Bit rate : 448 Kbps
Channel(s) : 6 channels
Channel positions : Front: L C R, Side: L R, LFE
Sampling rate : 48.0 KHz
Bit depth : 16 bits
Compression mode : Lossy
Stream size : 346 MiB (2%)
Title : Dub AC3 6ch 448kbps
Language : Russian
Default : Yes
Forced : No
Audio #3
ID : 3
Format : DTS
Format/Info : Digital Theater Systems
Codec ID : A_DTS
Duration : 1h 47mn
Bit rate mode : Constant
Bit rate : 1 510 Kbps
Channel(s) : 6 channels
Channel positions : Front: L C R, Side: L R, LFE
Sampling rate : 48.0 KHz
Bit depth : 24 bits
Compression mode : Lossy
Stream size : 1.14 GiB (8%)
Title : Original DTS 6ch 1510kbps
Language : English
Default : No
Forced : No
Text #4
ID : 4
Format : UTF-8
Codec ID : S_TEXT/UTF8
Codec ID/Info : UTF-8 Plain Text
Language : Russian
Default : No
Forced : No
Text #5
ID : 5
Format : UTF-8
Codec ID : S_TEXT/UTF8
Codec ID/Info : UTF-8 Plain Text
Language : English
Default : No
Forced : No
Menu
00:00:00.000 : :1. Working Late (Main Titles)
00:05:52.977 : :2. The Right Train
00:08:16.412 : :3. A Day Off
00:15:10.075 : :4. Cell Phone Mixup
00:18:20.641 : :5. Are You Free Tonight?
00:23:05.008 : :6. No Names
00:27:57.467 : :7. Frank and Sunbeam
00:34:01.998 : :8. Chinatown
00:40:16.831 : :9. Blood On the Sheets
00:43:20.347 : :10. Starts With an "S"
00:47:46.363 : :11. Foreplay
00:54:02.989 : :12. His Real Name
00:59:05.250 : :13. Well Played
01:02:57.398 : :14. Strangled
01:06:25.189 : :15. Phantom Accounts
01:14:53.780 : :16. Ka-Boom!
01:18:56.231 : :17. Enjoying Madrid
01:26:13.960 : :18. Half and Half
01:32:14.862 : :19. Let's Make a Deal
01:37:38.519 : :20. The Plaza/End Titles

Скриншоты

[Профиль] [ЛС]
Показать сообщения:    

Текущее время: Сегодня 10:14

Часовой пояс: GMT



Вы не можете начинать темы
Вы не можете отвечать на сообщения
Вы не можете редактировать свои сообщения
Вы не можете удалять свои сообщения
Вы не можете голосовать в опросах
Вы не можете прикреплять файлы к сообщениям
Вы не можете скачивать файлы