Список контактов / Deception (Марсель Лангенеггер / Marcel Langenegger) [2008, США, Триллер, драма, криминал, детектив, BDRip] Dub

 
Автор Сообщение

painkiller ®

Стаж: 2 года 3 месяца

Сообщений: 582



Награды: Нет

Торрент-статистика

Создавать темы 14-Авг-2014 09:11

[Цитировать]

Список контактов / Deception
«Вы свободны сегодня вечером?»
- Год выпуска: 2008
Выпущено: США / Media Rights Capital
Жанр: триллер, драма, криминал, детектив
Продолжительность: 01:47:49
Перевод: Профессиональный (полное дублирование) BD RUS
Cубтитры: нет-Режиссер:
Марсель Лангенеггер / Marcel Langenegger-В ролях:
Юэн МакГрегор (Jonathan McQuarry), Хью Джекман (Wyatt Bose), Мишель Уильямс (S), Брюс Олтмен (Lawyer #1), Эндрю Гинсбург (Lawyer #2), Стефани Рот Хаберли (Assistant Controller), Кристин Кан (Tennis Player), Данте Спинотти (Herr Kleiner / Mr. Moretti), Каролина Мюллер (Waitress)-Описание:
Джонатан МакУори не живёт — у него нет девушки, нет семьи, друзей, и лишь карьера движет им. Однажды засидевшись допоздна в офисе, он знакомится с харизматичным и бойким молодым адвокатом Уайттом Босом. Они быстро находят общий язык, и вот Джонатан уже в ночном клубе в окружении сногсшибательных девушек, и Уайатт представляет ему «С» — женщину, о которой Джонатан ранее не смел и мечтать.
Так у Джонатана появляется всё, чего ему так не хватало. Но бесплатный сыр бывает лишь в мышеловке… Уайтт далеко не безгрешен, а его вмешательство в судьбу Джонатана — не бескорыстно. В смертельно опасном мире Уайатта Джонатан всего лишь турист.-Релиз группы | IMDB | КиноПоиск | Сэмпл |-Качество: BDRip [Blu-ray Disk]
Формат: AVI
Видео: 720x304 (2.37:1), 23.976 fps, XviD build 73 ~1478 kbps avg, 0.28 bit/pixel
Аудио: 48 kHz, AC3 Dolby Digital, 3/2 (L,C,R,l,r) + LFE ch, ~448.00 kbps avg
-

Скриншоты

MediaInfo

General
Complete name                            : D:\Spisok_kontaktov_2008_BDRip_by_Dalemake.avi
Format                                   : AVI
Format/Info                              : Audio Video Interleave
File size                                : 1.46 GiB
Duration                                 : 1h 47mn
Overall bit rate                         : 1 936 Kbps
Writing application                      : VirtualDubMod 1.5.10.3 | www.virtualdub-fr.org || (build 2550/release)
Writing library                          : VirtualDubMod build 2550/release
Video
ID                                       : 0
Format                                   : MPEG-4 Visual
Format profile                           : Advanced Simple@L5
Format settings, BVOP                    : 1
Format settings, QPel                    : No
Format settings, GMC                     : No warppoints
Format settings, Matrix                  : Custom
Codec ID                                 : XVID
Codec ID/Hint                            : XviD
Duration                                 : 1h 47mn
Bit rate                                 : 1 479 Kbps
Width                                    : 720 pixels
Height                                   : 304 pixels
Display aspect ratio                     : 2.35:1
Frame rate                               : 23.976 fps
Color space                              : YUV
Chroma subsampling                       : 4:2:0
Bit depth                                : 8 bits
Scan type                                : Progressive
Compression mode                         : Lossy
Bits/(Pixel*Frame)                       : 0.282
Stream size                              : 1.11 GiB (76%)
Writing library                          : XviD 73
Audio
ID                                       : 1
Format                                   : AC-3
Format/Info                              : Audio Coding 3
Mode extension                           : CM (complete main)
Format settings, Endianness              : Big
Codec ID                                 : 2000
Duration                                 : 1h 47mn
Bit rate mode                            : Constant
Bit rate                                 : 448 Kbps
Channel(s)                               : 6 channels
Channel positions                        : Front: L C R, Side: L R, LFE
Sampling rate                            : 48.0 KHz
Bit depth                                : 16 bits
Compression mode                         : Lossy
Stream size                              : 345 MiB (23%)
Alignment                                : Split accross interleaves
Interleave, duration                     : 42 ms (1.00 video frame)
Interleave, preload duration             : 500 ms
-
[Профиль] [ЛС]

Создавать темы 06-Авг-2015 23:17 (спустя 11 месяцев 23 дня)

Топик был перенесен из форума Фильмы до 2014 года в форум Фильмы до 2012 года
sergej644
 

Создавать темы 12-Июн-2016 08:50 (спустя 1 год 9 месяцев)

Топик был перенесен из форума Фильмы 2011 года в форум Фильмы 2006-2008 года
Russian Mafia
 
Показать сообщения:    

Текущее время: Сегодня 13:02

Часовой пояс: GMT



Вы не можете начинать темы
Вы не можете отвечать на сообщения
Вы не можете редактировать свои сообщения
Вы не можете удалять свои сообщения
Вы не можете голосовать в опросах
Вы не можете прикреплять файлы к сообщениям
Вы не можете скачивать файлы