Спирит: Душа прерий / Spirit: Stallion of the Cimarron (2002) BDRip 720p

 
Автор Сообщение

Russian Mafia ®

Пол:

Стаж: 1 год 8 месяцев

Сообщений: 4257



Награды: 10 (Подробнее)

Mega Seeder 4 (Количество: 1) За внесенный вклад в развитие сайта (Количество: 1) Mega Seeder 3 (Количество: 1)
Торрент-статистика

Создавать темы 03-Июн-2016 19:41

[Цитировать]

Информация о фильме
Название: Спирит: Душа прерий
Оригинальное название: Spirit: Stallion of the Cimarron
Год выхода: 2002
Жанр: мультфильм, мелодрама, комедия, приключения, семейный, вестерн
Режиссер: Келли Эсбёри, Лорна Кук
В ролях: Мэтт Дэймон, Джеймс Кромуэлл, Дэниэл Студи, Чоппер Бернет, Джеф ЛеБо, Джон Рубано, Ричард МакГонагл, Мэтт Левин, Адам Пол, Роберт Кайт
О фильме: Этот приключенческий мультфильм рассказывает историю дикого жеребца мустанга Спирита, путешествующего по территории всей Америки. Храбрый Спирит заводит дружбу с молодым индейцем Ручейком и находит любовь с красивой кобылой по имени Гроза.
Все счастливы до тех пор, пока на жеребца не положили глаз люди, которые хотят сделать из него военную лошадь…

Выпущено: DreamWorks Animation
Продолжительность: 01:23:29
Перевод: Дублированный (лицензия) [без английского эха]
Файл
Кодек: x264
Качество: BDRip (источник: Blu-ray Disc)
Видео: 1280x546 (2,35:1), 23.976 fps, 2950 kbps
Аудио #1: AC-3, 6 ch, 448 kbps (Rus)
Аудио #2: AC-3, 6 ch, 640 kbps (Eng)
Субтитры: Русские, Английские
Скачать: сэмпл
Скриншоты

MI

Общее
Уникальный идентификатор : 225346070164911576601085384117258097956 (0xA988130E5F651CB180C590A5EB651524)
Полное имя : Spirit.Stallion.of.the.Cimarron.2002.BDRip.720p.Rus.Eng.mkv
Формат : Matroska
Версия формата : Version 2
Размер файла : 2,35 Гбайт
Продолжительность : 1 ч. 23 м.
Общий поток : 4036 Кбит/сек
Название фильма : Спирит: Душа прерий / Spirit: Stallion of the Cimarron (2002)
Дата кодирования : UTC 2014-04-26 10:32:33
Программа кодирования : mkvmerge v5.8.0 ('No Sleep / Pillow') built on Sep 2 2012 15:37:04
Библиотека кодирования : libebml v1.2.3 + libmatroska v1.3.0
Видео
Идентификатор : 1
Формат : AVC
Формат/Информация : Advanced Video Codec
Профиль формата : High@L4.1
Параметр CABAC формата : Да
Параметр ReFrames формата : 11 кадров
Идентификатор кодека : V_MPEG4/ISO/AVC
Продолжительность : 1 ч. 23 м.
Битрейт : 2946 Кбит/сек
Ширина : 1280 пикселей
Высота : 546 пикселей
Соотношение сторон : 2,35:1
Режим частоты кадров : Постоянный
Частота кадров : 23,976 кадра/сек
Цветовое пространство : YUV
Субдискретизация насыщенности : 4:2:0
Битовая глубина : 8 бит
Тип развёртки : Прогрессивная
Бит/(Пиксели*Кадры) : 0.176
Размер потока : 1,67 Гбайт (71%)
Заголовок : Release by AlexKa
Библиотека кодирования : x264 core 142 r2431 ac76440
Настройки программы : cabac=1 / ref=11 / deblock=1:0:0 / analyse=0x3:0x133 / me=umh / subme=11 / psy=1 / psy_rd=1.00:0.00 / mixed_ref=1 / me_range=32 / chroma_me=1 / trellis=2 / 8x8dct=1 / cqm=0 / deadzone=21,11 / fast_pskip=0 / chroma_qp_offset=-2 / threads=12 / lookahead_threads=2 / sliced_threads=0 / nr=0 / decimate=1 / interlaced=0 / bluray_compat=0 / constrained_intra=0 / bframes=9 / b_pyramid=2 / b_adapt=2 / b_bias=0 / direct=3 / weightb=1 / open_gop=0 / weightp=2 / keyint=240 / keyint_min=23 / scenecut=40 / intra_refresh=0 / rc=2pass / mbtree=0 / bitrate=2946 / ratetol=1.0 / qcomp=0.60 / qpmin=0 / qpmax=69 / qpstep=4 / cplxblur=20.0 / qblur=0.5 / ip_ratio=1.40 / pb_ratio=1.30 / aq=1:1.00
Язык : English
Аудио #1
Идентификатор : 2
Формат : AC-3
Формат/Информация : Audio Coding 3
Расширение режима : CM (complete main)
Параметр Endianness формата : Big
Идентификатор кодека : A_AC3
Продолжительность : 1 ч. 23 м.
Вид битрейта : Постоянный
Битрейт : 448 Кбит/сек
Каналы : 6 каналов
Расположение каналов : Front: L C R, Side: L R, LFE
Частота : 48,0 КГц
Битовая глубина : 16 бит
Метод сжатия : С потерями
Размер потока : 268 Мбайт (11%)
Заголовок : Rus
Язык : Russian
Аудио #2
Идентификатор : 3
Формат : AC-3
Формат/Информация : Audio Coding 3
Расширение режима : CM (complete main)
Параметр Endianness формата : Big
Идентификатор кодека : A_AC3
Продолжительность : 1 ч. 23 м.
Вид битрейта : Постоянный
Битрейт : 640 Кбит/сек
Каналы : 6 каналов
Расположение каналов : Front: L C R, Side: L R, LFE
Частота : 48,0 КГц
Битовая глубина : 16 бит
Метод сжатия : С потерями
Размер потока : 382 Мбайт (16%)
Заголовок : Eng
Язык : English
Текст #1
Идентификатор : 4
Формат : UTF-8
Идентификатор кодека : S_TEXT/UTF8
Идентификатор кодека/Информация : UTF-8 Plain Text
Заголовок : Rus
Язык : Russian
Текст #2
Идентификатор : 5
Формат : UTF-8
Идентификатор кодека : S_TEXT/UTF8
Идентификатор кодека/Информация : UTF-8 Plain Text
Заголовок : Eng
Язык : English
Меню
00:00:00.000 : en:Young Spirit
00:07:32.410 : en:Leader Of His Herd
00:11:29.855 : en:The Journey begins
00:18:15.010 : en:Spirit Meets Man
00:20:40.280 : en:A Strange New Place
00:23:22.359 : en:You Can't Break Me
00:25:35.492 : en:This One Seemed Different
00:30:11.184 : en:The Great Escape
00:35:24.831 : en:Indian Camp
00:38:47.950 : en:Rain's World
00:42:06.148 : en:Torn Two Ways
00:43:52.546 : en:"Go Home"
00:48:10.637 : en:The Calvalry Attacks
00:53:29.289 : en:Remember Who You Are
00:57:18.810 : en:Master Plan
01:00:49.437 : en:Breaking Free
01:04:26.863 : en:Leap of Faith
01:11:14.561 : en:Farewell My Friend
01:14:07.234 : en:The Return
01:16:12.109 : en:End Credits

x264

x264 [info]: frame I:1381 Avg QP:10.92 size:135009
x264 [info]: frame P:32280 Avg QP:13.97 size: 27858
x264 [info]: frame B:86432 Avg QP:16.21 size: 8776
x264 [info]: consecutive B-frames: 4.2% 4.9% 10.7% 51.2% 13.6% 8.3% 2.3% 1.3% 1.4% 2.0%
[Профиль] [ЛС]

Создавать темы 29-Июл-2016 17:09 (спустя 1 месяц 25 дней)

Топик был перенесен из форума Зарубежные Мультфильмы (WEB-DL 720p, 1080p) в форум Зарубежные Мультфильмы (Blu-ray, BD-Remux, BDRip 1080p, 720p)
Russian Mafia
 
Кто просматривает тему:

Форум Тема Автор Размер
Документальные HD Англия в Общем и в Частности: Проект Владимира Познера и Ивана Урганта. Выпуск 1 (из 10) (Валерий Спирин) [2015, Документальный, DD5.1, HDTV 720p] TorrentFilm 2.97 GB
Фильмы 2014 года Патруль времени / Предопределение / Predestination (Майкл Спириг, Питер Спириг) [2014 г., фантастика, триллер, BDRip] BOSS 1.47 GB
Компьютерная литература (Программирование) Спиридонов О. - Microsoft Office 2007 для пользователя (в 3-х частях) [2010, PDF, RUS] TorrentFilm 63 MB
Компьютерная литература (Программирование) Спиридонов О. - Расширенные возможности Microsoft Excel 2003 [2010, PDF, RUS] TorrentFilm 33 MB
Компьютерная литература (Программирование) Спиридонов О.В. - Расширенные возможности Microsoft Word 2003 [2010, PDF, RUS] TorrentFilm 26 MB
Зарубежные Мультфильмы (BDRip 1080p, 720p, Blu-ray, BD-Remux) Спирит: Душа прерий / Spirit: Stallion of the Cimarron (2002) BDRip 1080p | 60 fps | D, P Russian Mafia 8.34 GB
Зарубежные мультфильмы Спирит: Душа прерий / Spirit: Stallion of the Cimarron (Келли Эсбёри, Лорна Кук)[2002, мультфильм, мелодрама, комедия, BDRemux] 1080p | D, P sergej644 21.07 GB
Фильмы 2015 года Экспириенс (2015) SATRip BOSS 1.37 GB
Показать сообщения:    

Текущее время: Сегодня 03:23

Часовой пояс: GMT



Вы не можете начинать темы
Вы не можете отвечать на сообщения
Вы не можете редактировать свои сообщения
Вы не можете удалять свои сообщения
Вы не можете голосовать в опросах
Вы не можете прикреплять файлы к сообщениям
Вы не можете скачивать файлы