Спецэффекты в Кино. Создавая Невозможное / Industrial Light and Magic: Creating the Impossible (Лесли Айверкс / Leslie Iwerks) [2010, Документальный, HDTV 720p] MVO (AMEDiA TV)

 
Автор Сообщение

TorrentFilm ®

Пол:

Стаж: 2 года

Сообщений: 7741



Награды: Нет

Торрент-статистика

Создавать темы 14-Июн-2015 00:05

[Цитировать]

Спецэффекты в Кино. Создавая Невозможное / Industrial Light and Magic: Creating the Impossible- Год выпуска: 2010
Страна: США
Студия: Starz
Жанр: Документальный
Продолжительность: 0:57:12
Перевод: Многоголосый закадровый | "AMEDiA TV"
Режиссер: Лесли Айверкс / Leslie Iwerks-Описание: Том Круз, Джордж Лукас, Стивен Спилберг и Сэмюэл Л. Джексон в документальном фильме о лучшей студии спецэффектов в Голливуде. Здесь невозможное становится реальностью. Студия Джорджа Лукаса. подарила миру «Звездные войны» и «Трансформеров». Как это делается? Кто стоит за всем этим волшебством? Экскурсия по студии, уникальные технологии и интервью с актерами, художниками, техниками и всеми теми, кто создает чудеса графики и анимации.- -Автор рипа: lrn
Автор записи: Alexin29
Сэмпл: sendfile-Тип релиза: HDTV 720p
Контейнер: MKV
Видео: 1280x720 (16:9), 25,000 fps, H264, ~4000 kbps avg, ~0.174 bit/pixel
Аудио#1: 48 kHz, AC3 Dolby Digital, 3/2 (L,C,R,l,r) + LFE ch, ~384.00 kbps avg | "AMEDiA TV"
Аудио#2: 48 kHz, AC3 Dolby Digital, 2/0 (L,R) ch, ~192.00 kbps avg | Оригинал-

MediaInfo

GeneralUnique ID : 246744190257945094428259733803234438214 (0xB9A133D48EFBD3AF95713E27E8E32C46)Complete name : E:\uTorrent.Temp\Temp\ILM.Creating.the.Impossible.2010.HDTV.720p.x264-RUS-ENG-lrn.mkvFormat : MatroskaFormat version : Version 4 / Version 2File size : 1.83 GiBDuration : 57mn 12sOverall bit rate : 4 577 KbpsMovie name : ILM.Creating.the.Impossible.2010.HDTV.720p.x264-RUS-ENG-lrnEncoded date : UTC 2010-02-22 21:41:31Writing application : mkvmerge v5.9.0 ('On The Loose') built on Dec 9 2012 15:37:01Writing library : libebml v1.3.0 + libmatroska v1.4.0
VideoID : 1Format : AVCFormat/Info : Advanced Video CodecFormat profile : High@L4.1Format settings, CABAC : YesFormat settings, ReFrames : 8 framesCodec ID : V_MPEG4/ISO/AVCDuration : 57mn 12sBit rate : 4 000 KbpsWidth : 1 280 pixelsHeight : 720 pixelsDisplay aspect ratio : 16:9Frame rate mode : ConstantFrame rate : 25.000 fpsColor space : YUVChroma subsampling : 4:2:0Bit depth : 8 bitsScan type : ProgressiveBits/(Pixel*Frame) : 0.174Stream size : 1.56 GiB (85%)Writing library : x264 core 142 r2479 dd79a61Encoding settings : cabac=1 / ref=8 / deblock=1:-3:-3 / analyse=0x3:0x113 / me=umh / subme=9 / psy=1 / psy_rd=1.00:0.00 / mixed_ref=1 / me_range=32 / chroma_me=1 / trellis=2 / 8x8dct=1 / cqm=0 / deadzone=21,11 / fast_pskip=1 / chroma_qp_offset=-4 / threads=12 / lookahead_threads=2 / sliced_threads=0 / nr=0 / decimate=1 / interlaced=0 / bluray_compat=0 / constrained_intra=0 / bframes=8 / b_pyramid=2 / b_adapt=2 / b_bias=0 / direct=1 / weightb=1 / open_gop=0 / weightp=2 / keyint=250 / keyint_min=25 / scenecut=40 / intra_refresh=0 / rc_lookahead=50 / rc=2pass / mbtree=1 / bitrate=4000 / ratetol=1.0 / qcomp=0.60 / qpmin=0 / qpmax=69 / qpstep=4 / cplxblur=20.0 / qblur=0.5 / vbv_maxrate=62500 / vbv_bufsize=78125 / nal_hrd=none / filler=0 / ip_ratio=1.40 / aq=1:1.00Default : YesForced : NoColor range : LimitedColor primaries : BT.709Transfer characteristics : BT.709Matrix coefficients : BT.709
Audio #1ID : 2Format : AC-3Format/Info : Audio Coding 3Mode extension : CM (complete main)Format settings, Endianness : BigCodec ID : A_AC3Duration : 57mn 12sBit rate mode : ConstantBit rate : 384 KbpsChannel(s) : 6 channelsChannel positions : Front: L C R, Side: L R, LFESampling rate : 48.0 KHzCompression mode : LossyDelay relative to video : -80msStream size : 157 MiB (8%)Language : RussianDefault : YesForced : Yes
Audio #2ID : 3Format : AC-3Format/Info : Audio Coding 3Mode extension : CM (complete main)Format settings, Endianness : BigCodec ID : A_AC3Duration : 57mn 12sBit rate mode : ConstantBit rate : 192 KbpsChannel(s) : 2 channelsChannel positions : Front: L RSampling rate : 48.0 KHzCompression mode : LossyDelay relative to video : -80msStream size : 78.6 MiB (4%)Language : EnglishDefault : NoForced : No

x264 log

raw [info]: 1280x720p 1:1 @ 25/1 fps (cfr)x264 [info]: using SAR=1/1x264 [info]: using cpu capabilities: MMX2 SSE2Fast SSSE3 SSE4.2 AVXx264 [info]: profile High, level 4.1x264 [info]: frame I:675 Avg QP:15.01 size:100357x264 [info]: frame P:20273 Avg QP:18.34 size: 38158x264 [info]: frame B:64859 Avg QP:20.87 size: 13486x264 [info]: consecutive B-frames: 2.7% 3.0% 8.5% 31.8% 21.7% 23.2% 5.2% 3.2% 0.7%x264 [info]: mb I I16..4: 9.9% 74.0% 16.2%x264 [info]: mb P I16..4: 3.1% 16.8% 1.8% P16..4: 36.0% 19.5% 9.4% 0.0% 0.0% skip:13.4%x264 [info]: mb B I16..4: 0.4% 1.9% 0.2% B16..8: 34.6% 8.4% 2.0% direct:10.3% skip:42.2% L0:42.7% L1:45.5% BI:11.8%x264 [info]: 8x8 transform intra:76.9% inter:68.7%x264 [info]: coded y,uvDC,uvAC intra: 73.3% 83.7% 60.4% inter: 27.5% 31.6% 4.3%x264 [info]: i16 v,h,dc,p: 33% 25% 8% 35%x264 [info]: i8 v,h,dc,ddl,ddr,vr,hd,vl,hu: 12% 11% 8% 8% 11% 12% 12% 11% 13%x264 [info]: i4 v,h,dc,ddl,ddr,vr,hd,vl,hu: 12% 12% 6% 8% 14% 13% 13% 10% 12%x264 [info]: i8c dc,h,v,p: 44% 25% 16% 14%x264 [info]: Weighted P-Frames: Y:5.6% UV:3.6%x264 [info]: ref P L0: 45.5% 10.7% 19.9% 7.1% 6.0% 4.1% 3.9% 2.5% 0.3% 0.0%x264 [info]: ref B L0: 80.0% 10.3% 4.2% 2.3% 1.7% 1.0% 0.5%x264 [info]: ref B L1: 95.2% 4.8%x264 [info]: kb/s:3999.62encoded 85807 frames, 13.27 fps, 3999.62 kb/s

Скриншоты

-
[Профиль] [ЛС]
Показать сообщения:    

Текущее время: Сегодня 10:30

Часовой пояс: GMT



Вы не можете начинать темы
Вы не можете отвечать на сообщения
Вы не можете редактировать свои сообщения
Вы не можете удалять свои сообщения
Вы не можете голосовать в опросах
Вы не можете прикреплять файлы к сообщениям
Вы не можете скачивать файлы