Спецназ древнего мира (1 сезон: 9 серий из 10) / Ancient Black Ops (Ким Хогг / Kim Hogg) [2014, Документальный, постановочный, история, HDTVRip 720p]

 
Автор Сообщение

TorrentFilm ®

Пол:

Стаж: 2 года

Сообщений: 7741



Награды: Нет

Торрент-статистика

Создавать темы 17-Дек-2014 02:30

[Цитировать]

Спецназ древнего мира (1 сезон: 9 серий из 10) / Ancient Black Ops
Дата/Год выпуска: 2014
Страна: Великобритания
Жанр: Документальный, постановочный, история
Продолжительность: 9 х ~ 00:48:35
Перевод: Профессиональный (дублированный)
Режиссер: Ким Хогг / Kim Hogg
Телеканал: Viasat History HD
Описание: Cериал рассказывает о первых элитных подразделениях, которые существовали в древнем мире. Правители мира сего всегда нуждались в защите, поэтому в их распоряжении находились специально обученные воины, владеющие невероятными навыками, а также обученные пользоваться разнообразным оружием, и готовые на все ради сохранения жизни своего лидера. В каждой серии рассказывается о методах, которые использовались различными элитными войсками для выполнения специальных задач. Вы узнаете историю воинских формирований Греции, Византии, Японии и других древних цивилизаций. Узнаем, как древнескандинавский викинг мог держать под контролем целую армию, имея в распоряжении лишь боевой топор и галлюциногенные наркотики, как 47 ронинов однажды отомстили за смерть своего хозяина ценой собственных жизней, а также как ацтеки посылали своих воинов-ягуаров в стан врага в качестве группы захвата, чтобы обезвредить противников. Нас ждут захватывающие истории, возвращающие на много веков назад и рассказывающие о реальных конфликтах представителей античного мира. Именитые эксперты поделятся своим взглядом на события давно минувших дней, а точная реконструкция позволит воочию понаблюдать за работой элитных подразделений древнего мира.
Доп. информация: HDTVRip by alf62

качество: HDTVRip 720p
формат: MKV
Видео: MPEG-4 AVC, ~ 3895 Кбит/с, 1280x720
Аудио: AC3, 2 ch, 192 Кбит/с

Список выпусков/серий

01. Assassins
02. Спартанцы / Spartans
Находясь под угрозой нападения персидской армии, древние греки вынуждены были создать свои собственные войска специального назначения. Воины этой элитной части назывались спартанцами.
03. Сикарии / The Sicarii
Сикарии являлись войсками специального назначения, которые сражались против римских захватчиков в Иерусалиме в I веке нашей эры.
04. Воины призраки / The Ghost Warriors
Воины призраки являлись элитными войсками древней Германии, которые были обучены сражению ночью. Они, как правило, появлялись из неоткуда, вселяя панику и страх.
05. Берсерки (Викинги) / The Viking Berserkers
Берсерки были скандинавскими воинами, которые отличались неистовостью, неимоверной силой, быстрой реакцией и нечувствительностью к боли.
06. Варяжская гвардия / The Varangian Guard
Варяжская гвардия являлась элитным войском и одним из крупнейших подразделений Византийской империи.
07. «Воины-орлы» ацтеков / Aztec Eagle Warriors
Воины-ягуары входили в состав армии ацтеков и представляли собой элитные воинские части, аналогичные воинам-орлам.
8. Гавайские воины Коа / Hawaiian Koa Warriors
Когда-то на Гавайских островах проживали древние воины, которые изобрели искусство боя под названием Капу Куялуа, которое заключалось в том, что воин должен был сломать каждую кость противника
9. Ниндзя / Ninja
Ниндзя являлись наемными убийцами в древней Японии. Согласно легендам, ниндзя были отважные, тренированные люди, прошедшие ещё с детства подготовку в очень сложном искусстве ниндзюцу.
10. 47 ронинов / The 47 Ronin
Ронины – это самураи – изгнанники, которые сражались за восстановление чести своего хозяина. Их легендарный героизм был отражен в художественном фильме «47 ронинов».

MediaInfo

Спецназ древнего мира\Specnaz.drevnego.mira.2014.720p.HDTV.x264.alf62\Specnaz.drevnego.mira.(5.serija.iz.5).Berserki.(Vikingi).2014.720p.HDTV.x264.alf62.mkvФормат : MatroskaВерсия формата : Version 4 / Version 2Размер файла : 1,42 ГбайтПродолжительность : 48 м.Общий поток : 4170 Кбит/секДата кодирования : UTC 2014-10-16 03:04:21Программа кодирования : mkvmerge v6.6.0 ('The Edge Art of the Mass Effect Universe" title="Art of the Mass Effect Universe" style="">Art of the Mass Effect Universe" title="Art of the Mass Effect Universe" style="">the Mass Effect Universe" title="Art of the Mass Effect Universe" style="">of the Mass Effect Universe" title="Art of the Mass Effect Universe" style="">Art of the Mass Effect Universe" title="Art of the Mass Effect Universe" style="">Art of the Mass Effect Universe" title="Art of the Mass Effect Universe" title="Art of the Mass Effect Universe" style="">the Mass Effect Universe" title="Art of the Mass Effect Universe" style="">of the Mass Effect Universe" title="Art of the Mass Effect Universe" style="">Art of the Mass Effect Universe" title="Art of the Mass Effect Universe" style="">Mass Effect Universe" title="Art of the Mass Effect Universe" style="">the Mass Effect Universe" title="Art of the Mass Effect Universe" style="">of the Mass Effect Universe" style="">Mass Effect Universe" title="Art of the Mass Effect Universe" style="">of the Mass Effect Universe" title="Art of the Mass Effect Universe" style="">Art of the Mass Effect Universe" title="Art of the Mass Effect Universe" style="">the Mass Effect Universe" title="Art of the Mass Effect Universe" style="">of the Mass Effect Universe" title="Art of the Mass Effect Universe" style="">Art of the Mass Effect Universe" title="Art of the Mass Effect Universe" style="">Art of the Mass Effect Universe" title="Art of the Mass Effect Universe" style="">of the Mass Effect Universe" title="Art of the Mass Effect Universe" style="">of the Mass Effect Universe" title="Art of the Mass Effect Universe" style="">Art of the Mass Effect Universe" title="Art of the Mass Effect Universe" style="">Of The In Between') built on Dec 1 2013 17:55:00Библиотека кодирования : libebml v1.3.0 + libmatroska v1.4.1
ВидеоИдентификатор : 1Формат : AVCФормат/Информация : Advanced Video CodecПрофиль формата : High@L4.1Параметр CABAC формата : ДаПараметр ReFrames формата : 5 кадровИдентификатор кодека : V_MPEG4/ISO/AVCПродолжительность : 48 м.Битрейт : 3895 Кбит/секШирина : 1280 пикселейВысота : 720 пикселейСоотношение сторон : 16:9Режим частоты кадров : ПостоянныйЧастота кадров : 25,000 кадров/секЦветовое пространство : YUVСубдискретизация насыщенности : 4:2:0Битовая глубина : 8 битТип развёртки : ПрогрессивнаяБит/(Пиксели*Кадры) : 0.169Размер потока : 1,33 Гбайт (93%)Библиотека кодирования : x264 core 142 r2479 dd79a61Настройки программы : cabac=1 / ref=5 / deblock=1:-2:-1 / analyse=0x3:0x113 / me=umh / subme=9 / psy=1 / psy_rd=1.00:0.00 / mixed_ref=1 / me_range=16 / chroma_me=1 / trellis=1 / 8x8dct=1 / cqm=0 / deadzone=21,11 / fast_pskip=1 / chroma_qp_offset=-2 / threads=12 / lookahead_threads=1 / sliced_threads=0 / nr=0 / decimate=1 / interlaced=0 / bluray_compat=0 / constrained_intra=0 / bframes=16 / b_pyramid=2 / b_adapt=1 / b_bias=0 / direct=1 / weightb=1 / open_gop=0 / weightp=2 / keyint=250 / keyint_min=23 / scenecut=40 / intra_refresh=0 / rc_lookahead=psf-40-rc-elegant.html&sa=kost&bt=20&pt=9&lt=2&tl=3&im=ODI1LTAtMTQxMzQzOTQ2MC0xNzk5MDA3MA%3D%3D&prdct=013300330530093502&kw=psf-40-rc-elegant" target="_blank" alt="Polaris PSF 40 RC Elegant" title="Polaris PSF 40 RC Elegant" style="">Polaris PSF 40 RC Elegant" title="Polaris PSF 40 RC Elegant" style="">PSF 40 RC Elegant" title="Polaris PSF 40 RC Elegant" style="">psf-40-rc-elegant.html&sa=kost&bt=20&pt=9&lt=2&tl=3&im=ODI1LTAtMTQxMzQzOTQ2MS0xMDU3MDIwMg%3D%3D&prdct=013300330530093502&kw=Polaris%20PSF%2040" target="_blank" alt="Polaris PSF 40 RC Elegant" title="Polaris PSF 40 RC Elegant" style="">Polaris PSF 40 RC Elegant" style="">Polaris PSF 40 RC Elegant" title="Polaris PSF 40 RC Elegant" style="">Polaris PSF 40 RC Elegant" title="Polaris PSF 40 RC Elegant" style="">Polaris PSF 40 RC Elegant" title="Polaris PSF 40 RC Elegant" style="">Polaris PSF 40 RC Elegant" title="Polaris PSF 40 RC Elegant" style="">psf-40-rc-elegant.html&sa=kost&bt=20&pt=9&lt=2&tl=3&im=ODI1LTAtMTQxMzQzOTMwNC0xNjE2OTcyMg%3D%3D&prdct=013300330530093502&kw=40%20%2F%20rc" target="_blank" alt="Polaris PSF 40 RC Elegant" title="Polaris PSF 40 RC Elegant" style="">psf-40-rc-elegant.html&sa=kost&bt=20&pt=9&lt=2&tl=3&sa=kost&im=ODI1LTAtMTQxMzQzOTQ2MC0xMTQzMzQxNQ%3D%3D&prdct=013300330530093502&kw=psf-40-rc-elegant" target="_blank" alt="Polaris PSF 40 RC Elegant" title="Polaris PSF 40 RC Elegant" style="">40 RC Elegant" title="Polaris PSF 40 RC Elegant" style="">Polaris PSF 40 RC Elegant" title="Polaris PSF 40 RC Elegant" style="">psf-40-rc-elegant.html&sa=kost&bt=20&pt=9&lt=2&tl=3&im=ODI1LTAtMTQxMzQzOTM5OC0xMzUzMjcxMw%3D%3D&prdct=013300330530093502&kw=RC%20Elegant" target="_blank" alt="Polaris PSF PSF 40 RC Elegant" title="Polaris PSF 40 RC Elegant" style="">40 RC Elegant" style="">PSF 40 RC Elegant" title="Polaris PSF 40 RC Elegant" style="">Polaris PSF 40 RC Elegant" title="Polaris PSF 40 RC Elegant" style="">Polaris PSF 40 RC Elegant" title="Polaris PSF 40 RC Elegant" style="">PSF 40 RC Elegant" title="Polaris PSF 40 RC Elegant" style="">Polaris PSF 40 RC Elegant" title="Polaris PSF 40 RC Elegant" style="">Polaris PSF 40 RC Elegant" title="Polaris PSF 40 RC Elegant" style="">40 RC Elegant" title="Polaris PSF 40 RC Elegant" style="">RC Elegant" title="Polaris PSF 40 RC Elegant" style="">Polaris PSF 40 RC Elegant" title="Polaris PSF 40 RC Elegant" style="">40 / rc=crf / mbtree=1 / crf=20.0 / qcomp=0.60 / qpmin=0 / qpmax=69 / qpstep=4 / ip_ratio=1.40 / aq=1:1.00Язык : English" target="_blank" alt="mba.ru" title="mba.ru" style="">English" target="_blank" alt="mba.ru" title="mba.ru" style="">EnglishDefault : ДаForced : Нет
АудиоИдентификатор : 2Формат : AC-3Формат/Информация : Audio Coding 3Расширение режима : CM (complete main)Параметр Endianness формата : BigИдентификатор кодека : A_AC3Продолжительность : 48 м.Вид битрейта : ПостоянныйБитрейт : 192 Кбит/секКаналы : 2 каналаРасположение каналов : Front: L RЧастота : 48,0 КГцБитовая глубина : 16 битМетод сжатия : С потерямиРазмер потока : 66,9 Мбайт (5%)Default : ДаForced : Нет
Внимание! Раздача ведётся путём добавления новых серий

скрытый текст

Раздача ведётся путём добавления новых серий; при каждом добавлении создаётся новый торрент. Чтобы начать докачку новой серии, пользователям необходимо сделать следующее:
- Остановить скачивание.
- Удалить старый торрент у себя из клиента (старые серии удалять не надо).
- Скачать новый торрент и запустить его у себя в клиенте вместо старого, при этом указать клиенту путь в старую папку куда и должно происходить скачивание новых серий.
Ваш клиент при этом должен произвести хеширование (проверку) старой папки (если не производит сам - помогите ему сделать это), и будет докачивать только те серии которых у вас ещё нет. Старые серии при этом не удаляются, а продолжают раздаваться!
Если вы уже удалили старые серии, то предотвратить повторную закачку старых серий можно, отжав галочку в соответствующих местах при запуске нового торрента. По возможности, желательно не удалять старые серии как можно дольше, чтобы релизер не столько продолжал раздавать старые серии, а смог сконцентрироваться на новых.

Скриншоты

[Профиль] [ЛС]
Кто просматривает тему:

Форум Тема Автор Размер
Action Chrome: SpecForce / Хром: Спецназ [RePack] [RUS / RUS] (2005) (1.1.3.0) reversefile 829 MB
Разная литература Алексей Ардашев - Базовая подготовка Спецназа. Экстремальное выживание (2016) FB2 достали все 17 MB
Фильмы (HD Rips | 720p, 1080p) Безумный спецназ / The Men Who Stare at Goats (2009) BDRip 1080p от NNNB sergej644 7.75 GB
Разная литература Владимир Квачков - Спецназ России (2015) FB2 достали все 979 KB
Фильмы 2015 года Зомби-ниндзя против спецназа / Zombie Ninjas vs Black Ops (2015) DVDRip | L2 BOSS 1.46 GB
Разная литература Как победить любого противника в экстренных ситуациях. Секреты спецназа (2014) FB2 достали все 2 MB
Документальные HD Секретные операции (2 сезон: 2 серии из 8) / Black Ops 2 (Нед Паркер / Ned Parker) [2014, Документальный, спецслужбы, спецназ, история, HDTVRip 720p] TorrentFilm 1.67 GB
Боевики, детективы, триллеры Серия "Спецназ" издательства ЭКСМО (17 подсерий, 815 книг) [2003-2015, Боевик, FB2] sergej644 735 MB
Показать сообщения:    

Текущее время: Сегодня 22:21

Часовой пояс: GMT



Вы не можете начинать темы
Вы не можете отвечать на сообщения
Вы не можете редактировать свои сообщения
Вы не можете удалять свои сообщения
Вы не можете голосовать в опросах
Вы не можете прикреплять файлы к сообщениям
Вы не можете скачивать файлы