Специальный репортаж. Сирийская весна (2016.02.29) SATRip

 
Автор Сообщение

К@питан ®

Пол:

Стаж: 5 лет 6 месяцев

Сообщений: 6092

Откуда: Soviet Union



Награды: Нет

Торрент-статистика

Создавать темы 29-Фев-2016 22:04

[Цитировать]

- Специальный репортаж. Сирийская весна (2016.02.29) SATRip - Телекомпания: ТВЦ
Жанр: Документальный
Автор: Пётр Любимов
Описание:
В ходе Мюнхенской конференции по безопасности было достигнуто соглашение о прекращении огня в Сирии. Тем временем Турция и Саудовская Аравия продолжают обострять ситуацию... Какой стратегии придерживаются и какие цели ставят перед собой участники конфликта? Как влияет на ситуацию операция российских ВКС? Кому выгодно затягивание войны?
Релиз от: Хотт@быч
Продолжительность: ~ 00:25:50
Качество видео: SATRip
Субтитры: Отсутствуют
Видео: MPEG4, XviD, 704x448 (1.571), 25.000 fps, 1 795 Kbps (0.228 bit/pixel)
Аудио: MP3, 48.0 KHz, 2 ch, 128 Kbps, CBR

Mediainfo:

Формат                                   : AVI
Формат/Информация                        : Audio Video Interleave
Размер файла                             : 357 Мбайт
Продолжительность                        : 25 м.
Общий поток                              : 1933 Кбит/сек
Программа кодирования                    : VirtualDubMod 1.5.10.3 | [url=http://www.virtualdub-fr.org]www.virtualdub-fr.org[/url] || (build 2550/release)
Библиотека кодирования                   : VirtualDub build 29808/release
Видео
Идентификатор                            : 0
Формат                                   : MPEG-4 Visual
Профиль формата                          : Advanced Simple@L5
Параметр BVOP формата                    : 2
Параметр QPel формата                    : Нет
Параметр GMC формата                     : Без точки перехода
Параметр матрицы формата                 : Default (H.263)
Идентификатор кодека                     : XVID
Идентификатор кодека/Подсказка           : XviD
Продолжительность                        : 25 м.
Битрейт                                  : 1795 Кбит/сек
Ширина                                   : 704 пикселя
Высота                                   : 448 пикселей
Соотношение сторон                       : 16:10
Частота кадров                           : 25,000 кадров/сек
Цветовое пространство                    : YUV
Субдискретизация насыщенности            : 4:2:0
Битовая глубина                          : 8 бит
Тип развёртки                            : Прогрессивная
Метод сжатия                             : С потерями
Бит/(Пиксели*Кадры)                      : 0.228
Размер потока                            : 332 Мбайт (93%)
Библиотека кодирования                   : XviD 1.2.1 (UTC 2008-12-04)
Аудио
Идентификатор                            : 1
Формат                                   : MPEG Audio
Версия формата                           : Version 1
Профиль формата                          : Layer 3
Режим                                    : Joint stereo
Расширение режима                        : MS Stereo
Идентификатор кодека                     : 55
Идентификатор кодека/Подсказка           : MP3
Продолжительность                        : 25 м.
Вид битрейта                             : Постоянный
Битрейт                                  : 128 Кбит/сек
Каналы                                   : 2 канала
Частота                                  : 48,0 КГц
Метод сжатия                             : С потерями
Размер потока                            : 23,7 Мбайт (7%)
Выравнивание                             : Соединение по промежуткам
Продолжительность промежутка             : 40  мс. (1,00 видеокадр)
Время предзагрузки промежутка            : 504  мс.
Библиотека кодирования                   : LAME3.99r
Настройки программы                      : -m j -V 4 -q 2 -lowpass 17 -b 128
Скриншоты:
Время раздачи: 24/7. До первых 5 скачавших.
[Профиль] [ЛС]
Показать сообщения:    

Текущее время: Сегодня 12:28

Часовой пояс: GMT



Вы не можете начинать темы
Вы не можете отвечать на сообщения
Вы не можете редактировать свои сообщения
Вы не можете удалять свои сообщения
Вы не можете голосовать в опросах
Вы не можете прикреплять файлы к сообщениям
Вы не можете скачивать файлы