Специальный полуночный выпуск / Midnight Special (2016) BDRip-AVC | L

 
Автор Сообщение

достали все ®

Пол:

Стаж: 1 год 8 месяцев

Сообщений: 6554



Награды: 12 (Подробнее)

Top Releaser 2 (Количество: 1) Mega Releaser 1 (Количество: 1) Mega Seeder 1 (Количество: 1)
Торрент-статистика

Создавать темы 13-Июн-2016 09:12

[Цитировать]

Специальный полуночный выпуск / Midnight Special
Страна: США
Производство: Faliro House Productions, Tri-State Pictures, Warner Bros. Pictures
Год выпуска: 2016
Жанр: фантастика, триллер, драма, приключения
Продолжительность: 01:51:55
Режиссер: Джефф Николс
Автор сценария: Джефф Николс
В ролях: Майкл Шеннон, Джоэл Эдгертон, Кирстен Данст, Джейден Либерер, Адам Драйвер, Билл Кэмп, Скотт Хэйз, Сэм Шепард
Описание: Отец и сын сбегают, после того, как отец узнает, что его ребенок обладает сверхъестественными способностями...

Перевод: Любительский (многоголосый, закадровый) | Paradox & Omskbird records
Субтитры: английские (full + SDH)-Качество: BDRip-AVC
Формат: МКV
Видео кодек: AVC
Аудио кодек: АС3
Видео: 1152x480 (2.40:1), 23.976 fps, MPEG-4 AVC ~2 140 kbps avg
Аудио №1: 48.0 kHz, AC3 Dolby Digital, 3/2 (L,C,R,l,r) + LFE ch, ~448 kbps | RUS
Аудио №2: 48.0 kHz, AC3 Dolby Digital, 2/0 (L,R) ch, ~192.00 kbps | ENG
Формат субтитров UTF-8 Plain Text
Дата премьеры (мир): 12 февраля 2016

Media Info

General
Format : Matroska
Format version : Version 4 / Version 2
File size : 2.17 GiB
Duration : 1h 51mn
Overall bit rate : 2 772 Kbps
Movie name : Специальный полуночный выпуск / Midnight Special (2016) :: AFM ::
Encoded date : UTC 2016-06-10 21:16:40
Writing application : mkvmerge v8.3.0 ('Over the Horizon') 32bit
Writing library : libebml v1.3.1 + libmatroska v1.4.2
Video
ID : 1
Format : AVC
Format/Info : Advanced Video Codec
Format profile : High@L4.1
Format settings, CABAC : Yes
Format settings, ReFrames : 11 frames
Codec ID : V_MPEG4/ISO/AVC
Duration : 1h 51mn
Bit rate : 2 140 Kbps
Width : 1 152 pixels
Height : 480 pixels
Display aspect ratio : 2.40:1
Frame rate mode : Constant
Frame rate : 23.976 fps
Color space : YUV
Chroma subsampling : 4:2:0
Bit depth : 8 bits
Scan type : Progressive
Bits/(Pixel*Frame) : 0.161
Stream size : 1.62 GiB (75%)
Title : BDRip by AFM
Writing library : x264 core 148 r2665+53 6629127 t_mod_Custom [8-bit@all X86_64]
Encoding settings : cabac=1 / ref=11 / deblock=1:-3:-2 / analyse=0x3:0x113 / me=umh / subme=10 / psy=1 / fade_compensate=0.00 / psy_rd=1.00:0.00 / mixed_ref=1 / me_range=32 / chroma_me=1 / trellis=2 / 8x8dct=1 / cqm=0 / deadzone=21,11 / fast_pskip=0 / chroma_qp_offset=-2 / threads=6 / lookahead_threads=1 / sliced_threads=0 / nr=0 / decimate=0 / interlaced=0 / bluray_compat=0 / constrained_intra=0 / fgo=0 / bframes=13 / b_pyramid=2 / b_adapt=2 / b_bias=0 / direct=3 / weightb=1 / open_gop=0 / weightp=2 / keyint=250 / keyint_min=23 / scenecut=40 / intra_refresh=0 / rc_lookahead=40 / rc=2pass / mbtree=0 / bitrate=2140 / ratetol=1.0 / qcomp=0.65 / qpmin=0:0:0 / qpmax=69:69:69 / qpstep=4 / cplxblur=20.0 / qblur=0.5 / vbv_maxrate=50000 / vbv_bufsize=62500 / nal_hrd=none / filler=0 / ip_ratio=1.35 / pb_ratio=1.30 / aq=3:0.90 / aq-sensitivity=10.00 / aq-factor=1.00:1.00:1.00 / aq2=0 / aq3=0
Language : English
Default : Yes
Forced : No
Audio #1
ID : 2
Format : AC-3
Format/Info : Audio Coding 3
Mode extension : CM (complete main)
Format settings, Endianness : Big
Codec ID : A_AC3
Duration : 1h 51mn
Bit rate mode : Constant
Bit rate : 448 Kbps
Channel(s) : 6 channels
Channel positions : Front: L C R, Side: L R, LFE
Sampling rate : 48.0 KHz
Compression mode : Lossy
Stream size : 359 MiB (16%)
Title : MVO AC3 5.1 ~448 kbps
Language : Russian
Default : Yes
Forced : No
Audio #2
ID : 3
Format : AC-3
Format/Info : Audio Coding 3
Mode extension : CM (complete main)
Format settings, Endianness : Big
Codec ID : A_AC3
Duration : 1h 51mn
Bit rate mode : Constant
Bit rate : 192 Kbps
Channel(s) : 2 channels
Channel positions : Front: L R
Sampling rate : 48.0 KHz
Compression mode : Lossy
Stream size : 154 MiB (7%)
Title : Original, AC3 2.0 ~192 kbps
Language : English
Default : No
Forced : No
Text #1
ID : 4
Format : UTF-8
Codec ID : S_TEXT/UTF8
Codec ID/Info : UTF-8 Plain Text
Language : English
Default : No
Forced : No
Text #2
ID : 5
Format : UTF-8
Codec ID : S_TEXT/UTF8
Codec ID/Info : UTF-8 Plain Text
Title : SDH
Language : English
Default : No
Forced : No
Menu
00:00:00.000 : en:Chapter 1
00:12:53.189 : en:Chapter 2
00:23:34.413 : en:Chapter 3
00:31:31.681 : en:Chapter 4
00:41:39.539 : en:Chapter 5
00:51:50.107 : en:Chapter 6
01:01:02.242 : en:Chapter 7
01:13:30.239 : en:Chapter 8
01:24:15.217 : en:Chapter 9
01:34:09.060 : en:Chapter 10
01:46:35.014 : en:Chapter 11

Скриншоты

[Профиль] [ЛС]
Кто просматривает тему:

Форум Тема Автор Размер
Разное "Специалист" | Настройка ПК с Windows 8/7. Уровень 1. Базовые возможности​ (2013) [PCRec] sergej644 515 MB
Компьютерная литература (Программирование) Blattner P. / Блаттнер П. - Using Microsoft Office Excel 2003. Special Edition / Использование Microsoft Office Excel 2003. Специальное издание [2005, DjVu, RUS] TorrentFilm 31 MB
Action Devil May Cry 3: Dante\'s Awakening. Special Edition / Devil May Cry 3: Dante\'s Awakening. Специальное издание [L] [RUS / ENG] (2006) TorrentFilm 3.88 GB
Документальные HD В кольце. Специальный корреспондент. Эфир от 28/11/2014 (Александра Бузаладзе) [2014, Документалистика, телепередача, HDTV 1080i] TorrentFilm 5.57 GB
Иностранные языки Г.Г. Губина - Компьютерный английский. Часть II . Английский для специалистов (2013) PDF достали все 1 MB
Фильмы 2011 года Гайвер 2: Темный герой / Guyver: Dark Hero (Стив Ванг / Steve Wang) [1994, США, Фантастика, боевик, DVDRip] (Специальное полное издание / Special Extended Version) 5 x AVO (Визгунов + Гаври... Russian Mafia 1.78 GB
Компьютерная литература (Программирование) Для профессионалов - Richter J. / Рихтер Дж. - Programming Applications for Microsoft Windows / Windows. Создание эффективных Win32-приложений с учётом специфики 64-разрядной версии Windows... TorrentFilm 98 MB
Зарубежные сериалы Дуракам Везет - Специальные выпуски / Only Fools and Horses Special (1981 - 1992) DVDRip от Brazzass Белочка 8.92 GB
Показать сообщения:    

Текущее время: Сегодня 14:55

Часовой пояс: GMT



Вы не можете начинать темы
Вы не можете отвечать на сообщения
Вы не можете редактировать свои сообщения
Вы не можете удалять свои сообщения
Вы не можете голосовать в опросах
Вы не можете прикреплять файлы к сообщениям
Вы не можете скачивать файлы